img image001 image001 image001 image001 image001 image001 image001 image001 image001 image001 image001 image001 image001 image001 image001 image001
Planets Sun Sun Sun
Статистика раздачи
Автор: Nickolas3434 | Размер: 5.05 ГБ | Добавлен: 18 янв 2018
Раздают: 61    Качают: 6
Скачать торрент
Скачать торрент
Описание торрента

СообщениеДобавлено: 18 янв 2018 

Информация о фильме
Название: Что мы делаем в темноте (Реальные упыри)
Оригинальное название: What We Do in the Shadows
Год выхода: 2014
Жанр: Комедия, ужасы
Режиссер: Джемейн Клемент, Таика Вайтити
В ролях: Джемейн Клемент, Таика Вайтити, Джеки Ван Бик, Риз Дэрби, Бен Френшам, Марио Джая, Бен Харкорт, Айзек Херон, Коэн Холлоуэй, Джейсон Хойте, Аарон Джексон, Натан Майстер, Майк Миноуг
О фильме:
История жизни Виаго, Дикона и Владислава — трёх соседей и по совместительству бессмертных вампиров, которые всего лишь пытаются выжить в современном мире, где есть арендная плата, фейсконтроль в ночных клубах, губительный солнечный свет и другие неприятности. Фильм, который журнал Guardian назвал лучшей комедией года, а Empire — лучшим комедийным ужасом из Новой Зеландии со времён Живой мертвечины.

Страна: Новая Зеландия
Студия: Unison Films, Defender Films, Funny or Die
Продолжительность: 01:21:59
Перевод: Дублированный [iTunes]
Релиз: SDKino
Файл
Формат: X264
Качество: BDRip 720p
Видео: 1280x720, 8035 kb/s
Звук: AC3, 384 kb/s (6 ch)
Субтитры: Русские (Full)

Showing all 6 wins and 5 nominations
Berlin International Film Festival 2014
Nominated
Crystal Bear Generation 14plus - Best Film
Taika Waititi
Jemaine Clement
Hawaii International Film Festival 2014
Won
Audience Award Best Narrative Feature
Taika Waititi
Jemaine Clement
Neuchâtel International Fantasy Film Festival 2014
Won
Audience Award Jemaine Clement (director)
Taika Waititi (director)
New Zealand Film and TV Awards (II) 2014
Nominated
Film Award Best Supporting Actor
Jonathan Burgh
New Zealand Screen Awards 2014
Nominated
New Zealand Screen Award Best Supporting Actor
Jonathan Burgh
Online Film Critics Society Awards 2014
Nominated
OFCS Award Best Non-U.S. Release (non-competitive category)
Sitges - Catalonian International Film Festival 2014
Won
Maria Best Feature Film
Taika Waititi (director)
Jemaine Clement (director)
Tallinn Black Nights Film Festival 2014
Won
Audience Award Jemaine Clement
Taika Waititi
Nominated
Just Film Award Best Youth Film
Jemaine Clement
Taika Waititi
Toronto International Film Festival 2014
Won
People's Choice Award Midnight Madness
Taika Waititi
Jemaine Clement
Warsaw International Film Festival 2014
Won
Audience Award Feature Film
Jemaine Clement
Taika Waititi

General
Unique ID : 214559031654348366797399073200273249598 (0xA16A90FEF274563F8BD4C95DCCBE553E)
Complete name : F:What.We.Do.In.The.Shadows.2014.BDRip.720p.SDKino.mkv
Format : Matroska
Format version : Version 4 / Version 2
File size : 5.05 GiB
Duration : 1 h 25 min
Overall bit rate : 8 448 kb/s
Encoded date : UTC 2018-01-16 08:24:05
Writing application : mkvmerge v19.0.0 ('Brave Captain') 64-bit
Writing library : libebml v1.3.5 + libmatroska v1.4.8
Video
ID : 1
Format : AVC
Format/Info : Advanced Video Codec
Format profile : [email protected]
Format settings : CABAC / 9 Ref Frames
Format settings, CABAC : Yes
Format settings, RefFrames : 9 frames
Codec ID : V_MPEG4/ISO/AVC
Duration : 1 h 25 min
Bit rate : 8 035 kb/s
Width : 1 280 pixels
Height : 720 pixels
Display aspect ratio : 16:9
Frame rate mode : Constant
Frame rate : 23.976 (24000/1001) FPS
Color space : YUV
Chroma subsampling : 4:2:0
Bit depth : 8 bits
Scan type : Progressive
Bits/(Pixel*Frame) : 0.364
Stream size : 4.80 GiB (95%)
Writing library : x264 core 152 r2851 ba24899
Encoding settings : cabac=1 / ref=9 / deblock=1:-1:-1 / analyse=0x3:0x133 / me=tesa / subme=11 / psy=1 / psy_rd=1.00:0.15 / mixed_ref=1 / me_range=32 / chroma_me=1 / trellis=2 / 8x8dct=1 / cqm=0 / deadzone=21,11 / fast_pskip=0 / chroma_qp_offset=-3 / threads=6 / lookahead_threads=1 / sliced_threads=0 / nr=0 / decimate=1 / interlaced=0 / bluray_compat=0 / constrained_intra=0 / bframes=16 / b_pyramid=2 / b_adapt=2 / b_bias=0 / direct=3 / weightb=1 / open_gop=1 / weightp=2 / keyint=240 / keyint_min=23 / scenecut=40 / intra_refresh=0 / rc_lookahead=60 / rc=crf / mbtree=1 / crf=17.0 / qcomp=0.60 / qpmin=0 / qpmax=69 / qpstep=4 / vbv_maxrate=62500 / vbv_bufsize=78125 / crf_max=0.0 / nal_hrd=none / filler=0 / ip_ratio=1.40 / aq=1:1.00
Default : Yes
Forced : No
Audio
ID : 2
Format : AC-3
Format/Info : Audio Coding 3
Codec ID : A_AC3
Duration : 1 h 25 min
Bit rate mode : Constant
Bit rate : 384 kb/s
Channel(s) : 6 channels
Channel positions : Front: L C R, Side: L R, LFE
Sampling rate : 48.0 kHz
Frame rate : 31.250 FPS (1536 SPF)
Bit depth : 16 bits
Compression mode : Lossy
Stream size : 235 MiB (5%)
Language : Russian
Service kind : Complete Main
Default : Yes
Forced : No
Text
ID : 3
Format : PGS
Muxing mode : zlib
Codec ID : S_HDMV/PGS
Codec ID/Info : Picture based subtitle format used on BDs/HD-DVDs
Duration : 1 h 24 min
Bit rate : 56.1 kb/s
Count of elements : 3136
Stream size : 34.0 MiB (1%)
Language : Russian
Default : Yes
Forced : No



   Похожие торренты   Торрент   Размер 
В этой теме нет новых непрочитанных сообщений. Реальные упыри / What We Do in the Shadows (2014) BDRip 720p | P2

1621 | 84

4.48 ГБ

В этой теме нет новых непрочитанных сообщений. Реальные упыри / What We Do in the Shadows (2014) HDRip от Scarabey | iTunes

474 | 40

744.66 МБ

В этой теме нет новых непрочитанных сообщений. Что мы делаем в темноте / Реальные упыри / What We Do in the Shadows (2014) HDRip от Scarabey | iTunes

1520 | 39

1.44 ГБ

В этой теме нет новых непрочитанных сообщений. Реальные упыри / What We Do in the Shadows (2014) BDRip-AVC | P2

1200 | 122

1.66 ГБ

В этой теме нет новых непрочитанных сообщений. Реальные упыри / What We Do in the Shadows (2014) BDRip 1080p | P2

1174 | 70

6.67 ГБ

В этой теме нет новых непрочитанных сообщений. Реальные упыри / What We Do in the Shadows (2014) HDRip | P2

3548 | 103

1.37 ГБ

В этой теме нет новых непрочитанных сообщений. Реальные упыри / What We Do in the Shadows (2014) HDRip от Generalfilm | КПК | P2

88 | 38

289.32 МБ




Вы не можете начинать темы
Вы не можете отвечать на сообщения
Вы не можете редактировать свои сообщения
Вы не можете удалять свои сообщения
Вы не можете добавлять вложения

Перейти:  
Для Мосгорсуда, Роскомнадзора и рекламодателей: mosgorsud-torrent[собачка]yandex.ru
 Вход
ppkBB3cker v.2 © 2008-2014 @ PPK
[ Time : 0.047s | 17 Queries | GZIP : Off ]

cron