img image001 image001 image001 image001 image001 image001 image001 image001 image001 image001 image001 image001 image001 image001 image001 image001
Planets Sun Sun Sun
Статистика раздачи
Автор: Nickolas3434 | Размер: 10.3 ГБ | Добавлен: 18 янв 2018
Раздают: 30    Качают: 5
Скачать торрент
Скачать торрент
Описание торрента

СообщениеДобавлено: 18 янв 2018 

Информация о фильме
Название: Света с того света / Сезон 1 / Серии 1-8 из 16)
Год выпуска: 2018
Страна: Россия
Жанр: комедия

Перевод: Не требуется [Русский]
Продолжительность: 00:19:20

Режиссер: Максим Пежемский
В ролях: Мария Машкова (Света), Анна Котова (Ирка), Кирилл Каганович (Паша), Александр Ратников (Игорь), Борис Каморзин (Цыпин), Евгения Дмитриева (Оксана), Виктор Супрун (Мент), Артем Лысков (Дылда), Вилен Бабичев (амбал), Юлия Писаренко (администратор салона красоты), Вероника Тимофеева (Анжела), Артем Маркарьян (очкарик)


Описание:
«Света с того света» - это история про обаятельную мошенницу, девушку Свету, после несчастного случая оказавшуюся ограниченной в движении. Чтобы вновь встать на ноги, Свете нужна платная операция. Но как заработать, если нет возможности даже выйти из дома? У Светы появляется идея! На просторах интернета она, представляясь магом-биоэнерготерапевтом Светозарой, за небольшую плату помогает людям решить их личные проблемы.

Рейтинг:


Качество: HDTV 1080p
Формат: MKV
Видео: AVC, 1920x1080 (16:9), 5680 kbps, 25 fps, 0,110 bpp
Аудио: AC3 / 2.0 / 48 kHz / 192 kbps /


Релиз от:


General
Unique ID : 254551061202260591981322977498838158233 (0xBF80C0490A2D275D8ECC832E2A454B99)
Complete name : E:Sveta s togo sveta 2018 HDTV 1080p R.G.GeneralfilmSveta s togo sveta..s01.e05.2018.HDTV 1080p.by.White Smoke.R.G.Generalfilm.mkv
Format : Matroska
Format version : Version 4 / Version 2
File size : 829 MiB
Duration : 19 min
Overall bit rate mode : Constant
Overall bit rate : 5 991 kb/s
Movie name : Sveta s togo sveta..s01.e05.2018.HDTV 1080p.by.White Smoke.R.G.Generalfilm.mkv
Encoded date : UTC 2018-01-13 17:06:27
Writing application : mkvmerge v6.8.0 ('Theme for Great Cities') 64bit built on Mar 2 2014 21:34:26
Writing library : libebml v1.3.0 + libmatroska v1.4.1
Video
ID : 1
Format : AVC
Format/Info : Advanced Video Codec
Format profile : [email protected]
Format settings, CABAC : Yes
Format settings, ReFrames : 3 frames
Codec ID : V_MPEG4/ISO/AVC
Duration : 19 min
Bit rate mode : Constant
Bit rate : 5 680 kb/s
Nominal bit rate : 7 051 kb/s
Width : 1 920 pixels
Height : 1 080 pixels
Display aspect ratio : 16:9
Frame rate mode : Constant
Frame rate : 25.000 FPS
Standard : PAL
Color space : YUV
Chroma subsampling : 4:2:0
Bit depth : 8 bits
Scan type : Progressive
Bits/(Pixel*Frame) : 0.110
Stream size : 786 MiB (95%)
Default : Yes
Forced : No
Color range : Limited
Color primaries : BT.709
Transfer characteristics : BT.709
Matrix coefficients : BT.709
Audio
ID : 2
Format : AC-3
Format/Info : Audio Coding 3
Mode extension : CM (complete main)
Format settings, Endianness : Big
Codec ID : A_AC3
Duration : 19 min
Bit rate mode : Constant
Bit rate : 192 kb/s
Channel(s) : 2 channels
Channel positions : Front: L R
Sampling rate : 48.0 kHz
Frame rate : 31.250 FPS (1536 spf)
Compression mode : Lossy
Stream size : 26.6 MiB (3%)
Default : Yes
Forced : No

Внимание! Раздача ведётся путём добавления новых серий; при каждом добавлении создаётся новый торрент.
Чтобы начать докачку новой серии, пользователям необходимо сделать следующее:
1. Остановить скачивание;
2. Удалить старый торрент у себя из клиента (старые серии удалять не надо);
3. Скачать новый торрент и запустить его у себя в клиенте вместо старого, при этом указать клиенту путь в старую папку куда и должно происходить скачивание новых серий. Ваш клиент при этом должен произвести хеширование (проверку) старой папки и будет докачивать только те серии, которых у вас ещё нет. Старые серии при этом не удаляются, а продолжают раздаваться! Eсли вы уже удалили старые серии, то предотвратить повторную закачку старых серий можно, отжав галочку в соответствующих местах при запуске нового торрента.



   Похожие торренты   Торрент   Размер 
В этой теме нет новых непрочитанных сообщений. Света с того света [01-10 из 16] (2017) HDTV 1080p от Generalfilm

13 | 1

15.38 ГБ

В этой теме нет новых непрочитанных сообщений. Света с того света [01-08 из 16] (2017) HDTV 1080p от Generalfilm

50 | 2

8.19 ГБ

В этой теме нет новых непрочитанных сообщений. Света с того света [01х01-04 из 20] (2017) HDTV 1080i от MediaClub

0 | 0

17.63 ГБ

В этой теме нет новых непрочитанных сообщений. Света с того света [01х01-04 из 20] (2017) HDTV 1080i от MediaClub

72 | 25

18.9 ГБ

В этой теме нет новых непрочитанных сообщений. Света с того света [01х01-04 из 20] (2017) HDTV 1080i от MediaClub

99 | 77

10.09 ГБ

В этой теме нет новых непрочитанных сообщений. Света с того света [01-04 из 12] (2017) HDTVRip от GeneralFilm

0 | 0

2.71 ГБ

В этой теме нет новых непрочитанных сообщений. Света с того света [S01] (2017) WEBRip от GeneralFilm | КПК

7 | 1

1.43 ГБ




Вы не можете начинать темы
Вы не можете отвечать на сообщения
Вы не можете редактировать свои сообщения
Вы не можете удалять свои сообщения
Вы не можете добавлять вложения

Перейти:  
Для Мосгорсуда, Роскомнадзора и рекламодателей: mosgorsud-torrent[собачка]yandex.ru
 Вход
ppkBB3cker v.2 © 2008-2014 @ PPK
[ Time : 0.067s | 19 Queries | GZIP : Off ]

cron