img image001 image001 image001 image001 image001 image001 image001 image001 image001 image001 image001 image001 image001 image001 image001 image001
Planets Sun Sun Sun
Статистика раздачи
Автор: Nickolas3434 | Размер: 8.15 ГБ | Добавлен: 18 янв 2018
Раздают: 37    Качают: 10
Скачать торрент
Скачать торрент
Описание торрента

СообщениеДобавлено: 18 янв 2018 

Информация о фильме
Название: Путешествие времени
Оригинальное название: Voyage of Time: Life's Journey
Год выхода: 2016
Жанр: Документальный, фэнтези
Режиссер: Терренс Малик
В ролях: Кейт Бланшетт, Джамал Кавил, Мэйша Диатта, Ягази Эмези, Дэрил Джеймс Харрис II, Себастьян Джексон, Абрахам Косгей, Руна Люсьенн, Тео Бонгани Ндьяльване, Жежуан Плэр
О фильме:
Невероятное путешествие в прошлое нашей планеты. Фильм, пропитанный энергией самой природы, сочетает в себе новаторские спецэффекты и удивительные кадры, снятые в разных уголках земного шара в попытках зафиксировать то, что живет веками и неподвластно времени.

Страна: Франция, Германия, США
Студия: Plan B Entertainment, River Road Entertainment
Продолжительность: 01:28:53
Перевод: Дублированный | Кинопремьера HD, iTunes
Файл
Качество: BDRip 1080p
Видео: [email protected], 1920x1036, ~12000 Kbit/s, 23.976 fps
Аудио #01: 48 kHz, AC3, 5.1, 448 Kbps | Дублированный | Кинопремьера HD | RUS |
Аудио #02: 48 kHz, AC3, 2.0, 256 Kbps | Дублированный | iTunes | RUS |
Аудио #03: 48 kHz, AC3, 5.1, 448 Kbps | Оригинал | ENG |
Субтитры: Английские
General
Unique ID : 238645786366884607304607145073697313918 (0xB38981B0F80E97219126B6AA14FB547E)
Complete name : F:FILMSПутешествие времени.2016.DD.BLU-RAY.1080p.[-=DoMiNo=-].mkv
Format : Matroska
Format version : Version 4 / Version 2
File size : 8.15 GiB
Duration : 1 h 28 min
Overall bit rate : 13.1 Mb/s
Movie name : Путешествие времени
Encoded date : UTC 2018-01-17 14:55:48
Writing application : mkvmerge v18.0.0 ('Apricity') 64-bit
Writing library : libebml v1.3.5 + libmatroska v1.4.8
Attachments : poster.jpg
Video
ID : 1
Format : AVC
Format/Info : Advanced Video Codec
Format profile : [email protected]
Format settings : CABAC / 4 Ref Frames
Format settings, CABAC : Yes
Format settings, ReFrames : 4 frames
Codec ID : V_MPEG4/ISO/AVC
Duration : 1 h 28 min
Bit rate : 12.0 Mb/s
Width : 1 920 pixels
Height : 1 036 pixels
Display aspect ratio : 1.85:1
Frame rate mode : Constant
Frame rate : 23.976 (24000/1001) FPS
Color space : YUV
Chroma subsampling : 4:2:0
Bit depth : 8 bits
Scan type : Progressive
Bits/(Pixel*Frame) : 0.251
Stream size : 7.44 GiB (91%)
Title : BLU-RAY_1080p_RIP_BY_-=DoMiNo=-
Writing library : x264 core 155 r2893M b00bcaf
Encoding settings : cabac=1 / ref=4 / deblock=1:-3:-3 / analyse=0x3:0x113 / me=umh / subme=10 / psy=1 / psy_rd=1.00:0.05 / mixed_ref=1 / me_range=32 / chroma_me=1 / trellis=2 / 8x8dct=1 / cqm=0 / deadzone=21,11 / fast_pskip=1 / chroma_qp_offset=-3 / threads=5 / lookahead_threads=1 / sliced_threads=0 / nr=0 / decimate=1 / interlaced=0 / bluray_compat=0 / constrained_intra=0 / bframes=6 / b_pyramid=2 / b_adapt=2 / b_bias=0 / direct=3 / weightb=1 / open_gop=0 / weightp=2 / keyint=240 / keyint_min=24 / scenecut=40 / intra_refresh=0 / rc_lookahead=60 / rc=crf / mbtree=1 / crf=18.0 / qcomp=0.60 / qpmin=0 / qpmax=69 / qpstep=4 / ip_ratio=1.40 / aq=1:1.00
Language : English
Default : Yes
Forced : No
Color range : Limited
Color primaries : BT.709
Transfer characteristics : BT.709
Matrix coefficients : BT.709
Audio #1
ID : 2
Format : AC-3
Format/Info : Audio Coding 3
Codec ID : A_AC3
Duration : 1 h 28 min
Bit rate mode : Constant
Bit rate : 448 kb/s
Channel(s) : 6 channels
Channel positions : Front: L C R, Side: L R, LFE
Sampling rate : 48.0 kHz
Frame rate : 31.250 FPS (1536 SPF)
Bit depth : 16 bits
Compression mode : Lossy
Stream size : 285 MiB (3%)
Title : Dub [Кинопремьера HD]
Language : Russian
Service kind : Complete Main
Default : Yes
Forced : No
Audio #2
ID : 3
Format : AC-3
Format/Info : Audio Coding 3
Codec ID : A_AC3
Duration : 1 h 28 min
Bit rate mode : Constant
Bit rate : 256 kb/s
Channel(s) : 2 channels
Channel positions : Front: L R
Sampling rate : 48.0 kHz
Frame rate : 31.250 FPS (1536 SPF)
Bit depth : 16 bits
Compression mode : Lossy
Stream size : 163 MiB (2%)
Title : iTunes
Language : Russian
Service kind : Complete Main
Default : No
Forced : No
Audio #3
ID : 4
Format : AC-3
Format/Info : Audio Coding 3
Codec ID : A_AC3
Duration : 1 h 28 min
Bit rate mode : Constant
Bit rate : 448 kb/s
Channel(s) : 6 channels
Channel positions : Front: L C R, Side: L R, LFE
Sampling rate : 48.0 kHz
Frame rate : 31.250 FPS (1536 SPF)
Bit depth : 16 bits
Compression mode : Lossy
Stream size : 285 MiB (3%)
Title : Original
Language : English
Service kind : Complete Main
Default : No
Forced : No
Text
ID : 5
Format : UTF-8
Codec ID : S_TEXT/UTF8
Codec ID/Info : UTF-8 Plain Text
Duration : 1 h 22 min
Bit rate : 3 b/s
Count of elements : 153
Stream size : 2.09 KiB (0%)
Title : Full
Language : English
Default : No
Forced : No
Menu
00:00:00.000 : :Chapter 1
00:11:59.427 : :Chapter 2
00:22:30.640 : :Chapter 3
00:33:56.075 : :Chapter 4
00:45:04.535 : :Chapter 5
00:55:10.348 : :Chapter 6
01:06:25.022 : :Chapter 7
01:15:21.892 : :Chapter 8
01:23:48.148 : :Chapter 9



   Похожие торренты   Торрент   Размер 
В этой теме нет новых непрочитанных сообщений. Путешествие времени / Voyage of Time: Life's Journey (2016) WEB-DL 1080p | iTunes

1083 | 36

3.23 ГБ

В этой теме нет новых непрочитанных сообщений. Путешествие времени / Voyage of Time: Life's Journey (2016) BDRemux 1080p от ExKinoRay | iTunes

62 | 10

18.63 ГБ

В этой теме нет новых непрочитанных сообщений. Путешествие времени / Voyage of Time: Life's Journey (2016) BDRip от ExKinoRay | iTunes

266 | 7

1.46 ГБ

В этой теме нет новых непрочитанных сообщений. Путешествие времени / Voyage of Time: Life's Journey (2016) BDRip 720p | D | iTunes

9 | 0

3.63 ГБ

В этой теме нет новых непрочитанных сообщений. Путешествие времени / Voyage of Time: Life's Journey (2016) WEB-DLRip от Kaztorrents | iTunes

152 | 23

1.16 ГБ

В этой теме нет новых непрочитанных сообщений. Путешествие времени / Voyage of Time: Life's Journey (2016) WEB-DLRip-AVC от ExKinoRay | iTunes

2966 | 48

1.41 ГБ

В этой теме нет новых непрочитанных сообщений. Путешествие времени / Voyage of Time: Life s Journey (2016) BDRip 720p от KinoGadget | iPad | D

16 | 4

2.03 ГБ




Вы не можете начинать темы
Вы не можете отвечать на сообщения
Вы не можете редактировать свои сообщения
Вы не можете удалять свои сообщения
Вы не можете добавлять вложения

Перейти:  
Для Мосгорсуда, Роскомнадзора и рекламодателей: mosgorsud-torrent[собачка]yandex.ru
 Вход
ppkBB3cker v.2 © 2008-2014 @ PPK
[ Time : 0.031s | 18 Queries | GZIP : Off ]

cron