img image001 image001 image001 image001 image001 image001 image001 image001 image001 image001 image001 image001 image001 image001 image001

Planets Sun Sun Sun
Статистика раздачи
Автор: Nickolas3434 | Размер: 1.09 ГБ | Добавлен: 04 дек 2017
Раздают: 38    Качают: 1
Скачать торрент
Скачать торрент
Описание торрента

СообщениеДобавлено: 04 дек 2017 


Мы "В КОНТАКТЕ"


Страна: СССР
Производство: Союзмультфильм
Жанр: мультфильм, фэнтези, приключения, семейный
Год выпуска: 1959
Продолжительность: 01:04:22
Перевод: Не требуется
Cубтитры: нет
Оригинальная аудиодорожка: русский
Режиссер: Дмитрий Бабиченко, Иван Иванов-Вано
Роли озвучивали:
Нина Гуляева, Евгений Весник, Георгий Вицин, Тамара Дмитриева, Маргарита Корабельникова, Александр Баранов, Елена Понсова, Владимир Лепко, Татьяна Струкова, Юлия Юльская, Владимир Ратомский, Мария Виноградова, Леонид Пирогов, Эраст Гарин, Сергей Мартинсон, Анастасия Зуева, Юрий Хржановский, Григорий Шпигель...
Об актёрах подробней
Описание:
Экранизация сказки А.Н.Толстого.
История приключений деревянной куклы Буратино, вырезанной из полена шарманщиком Карло.





Источник: DVD5 R5
Качество видео: DVDRip-AVC
Формат видео: MKV
Видео: 720->768x576 (4:3), 25 fps, H264 ~ 1973 kbps avg, 0.190 bit/pixel
Аудио: 48 kHz, Dolby Digital AC3 5.1, 448 kbps
Раздача от:
Общее
Полное имя : Prikluchenie.Buratino.1959.DVDRip-AVC_[New-team]_by_AVP_Studio.mkv
Формат : Matroska
Версия формата : Version 2
Размер файла : 1,09 Гбайт
Продолжительность : 1 ч. 4 м.
Общий поток : 2423 Кбит/сек
Дата кодирования : UTC 2017-12-03 16:02:33
Программа кодирования : mkvmerge v6.1.0 ('Old Devil') built on Mar 4 2013 09:10:42
Библиотека кодирования : libebml v1.3.0 + libmatroska v1.4.0
Видео
Идентификатор : 1
Формат : AVC
Формат/Информация : Advanced Video Codec
Профиль формата : [email protected]
Настройки формата : CABAC / 10 Ref Frames
Параметр CABAC формата : Да
Параметр RefFrames формата : 10 кадров
Идентификатор кодека : V_MPEG4/ISO/AVC
Продолжительность : 1 ч. 4 м.
Битрейт : 1973 Кбит/сек
Ширина : 720 пикселей
Высота : 576 пикселей
Соотношение сторон : 4:3
Режим частоты кадров : Постоянный
Частота кадров : 25,000 кадров/сек
Стандарт вещания : PAL
Цветовое пространство : YUV
Субдискретизация насыщенности : 4:2:0
Битовая глубина : 8 бит
Тип развёртки : Прогрессивная
Бит/(Пиксели*Кадры) : 0.190
Размер потока : 887 Мбайт (80%)
Библиотека кодирования : x264 core 130 r2273 b3065e6
Настройки программы : cabac=1 / ref=10 / deblock=1:-2:-1 / analyse=0x3:0x113 / me=umh / subme=10 / psy=1 / psy_rd=1.00:0.00 / mixed_ref=1 / me_range=32 / chroma_me=1 / trellis=2 / 8x8dct=1 / cqm=0 / deadzone=21,11 / fast_pskip=1 / chroma_qp_offset=-2 / threads=6 / lookahead_threads=1 / sliced_threads=0 / nr=0 / decimate=0 / interlaced=0 / bluray_compat=0 / constrained_intra=0 / bframes=8 / b_pyramid=2 / b_adapt=2 / b_bias=0 / direct=3 / weightb=1 / open_gop=0 / weightp=2 / keyint=250 / keyint_min=25 / scenecut=40 / intra_refresh=0 / rc=2pass / mbtree=0 / bitrate=1973 / ratetol=1.0 / qcomp=0.60 / qpmin=0 / qpmax=69 / qpstep=4 / cplxblur=20.0 / qblur=0.5 / ip_ratio=1.40 / pb_ratio=1.30 / aq=1:1.00
Default : Да
Forced : Нет
Аудио
Идентификатор : 2
Формат : AC-3
Формат/Информация : Audio Coding 3
Идентификатор кодека : A_AC3
Продолжительность : 1 ч. 4 м.
Вид битрейта : Постоянный
Битрейт : 448 Кбит/сек
Каналы : 6 каналов
Расположение каналов : Front: L C R, Side: L R, LFE
Частота : 48,0 КГц
Частота кадров : 31,250 кадров/сек (1536 SPF)
Битовая глубина : 16 бит
Метод сжатия : С потерями
Задержка видео : 360 мс.
Размер потока : 206 Мбайт (18%)
Default : Да
Forced : Нет





   Похожие торренты   Торрент   Размер 
В этой теме нет новых непрочитанных сообщений. Приключения Буратино (1959) DVDRip от New-Team

23 | 0

744.57 МБ

В этой теме нет новых непрочитанных сообщений. Приключения Буратино (1959) DVDRip от New-Team

18 | 1

1.09 ГБ

В этой теме нет новых непрочитанных сообщений. Приключения Буратино (1959) DVDRip

47 | 31

699.09 МБ

В этой теме нет новых непрочитанных сообщений. Приключения Буратино (1959) DVDRip от MediaClub | КПК

402 | 22

291.63 МБ

В этой теме нет новых непрочитанных сообщений. Приключения Буратино (1959) DVDRip от ExKinoRay

610 | 30

1.32 ГБ

В этой теме нет новых непрочитанных сообщений. Приключения Буратино (1959) DVDRip-AVC | Лицензия | Pеставрация

56 | 0

1.31 ГБ

В этой теме нет новых непрочитанных сообщений. Приключения Буратино / ремастер (1959) DVD5 by гаврила

18 | 2

3.78 ГБ




Вы не можете начинать темы
Вы не можете отвечать на сообщения
Вы не можете редактировать свои сообщения
Вы не можете удалять свои сообщения
Вы не можете добавлять вложения

Перейти:  
Для Мосгорсуда, Роскомнадзора и рекламодателей: mosgorsud-torrent[собачка]yandex.ru
 Вход
ppkBB3cker v.2 © 2008-2014 @ PPK
[ Time : 0.036s | 17 Queries | GZIP : Off ]

cron