img image001 image001 image001 image001 image001 image001 image001 image001 image001 image001 image001 image001 image001 image001 image001

Planets Sun Sun Sun
Статистика раздачи
Автор: Nickolas3434 | Размер: 6.66 ГБ | Добавлен: 27 ноя 2017
Раздают: 605    Качают: 25
Скачать торрент
Скачать торрент
Описание торрента

СообщениеДобавлено: 27 ноя 2017 

Информация о фильме
Название: Реальная белка 2
Оригинальное название: The Nut Job 2: Nutty by Nature
Год выхода: 2017
Жанр: Мультфильм, комедия, приключения, семейный
Режиссер: Кэллан Брункер
В ролях: Уилл Арнетт, Кэтрин Хейгл, Майя Рудольф, Джеки Чан, Изабела Монер, Петер Стормаре, Бобби Каннавейл, Бобби Мойнахан, Джефф Данэм, Габриэль Иглесиас
О фильме:
В продолжении веселых хвостатых приключений белке Злюку и его друзьям снова нужно действовать сообща. На сей раз — чтобы спасти свой дом: мэр города задумал вырубить их парк и построить на его месте бездушные аттракционы... К счастью, у Злюка и других любителей арахиса есть план, не последняя роль в котором отведена новым друзьям наших героев — белым мышам под предводительством мудрого мистера Фэнга.

Страна: Канада, Корея Южная, США
Студия: Gulfstream Pictures, Red Rover International, Shanghai Hoongman Technology Co., ToonBox Entertainment
Продолжительность: 01:31:13
Перевод: Дублированный | iTunes
Файл
Качество: BDRip 1080p
Видео: MPEG-4 AVC, 1920x1036, 9422 Kbit/s, 23.976 fps
Звук:
Аудио #01: 48 kHz, AC3, 5.1, 384 Kbps | Дублированный | iTunes | RUS |
Аудио #02: 48 kHz, AC3, 5.1, 640 Kbps | Оригинал | ENG |
Субтитры: Английские

General
Unique ID : 240872439963744194860756433415995691769 (0xB536583085804E6BA698052489D892F9)
Complete name : G:VideoSSDThe.Nut.Job.2.Nutty.by.Nature.2017.BDRip.1080p.ExKinoRay.mkv
Format : Matroska
Format version : Version 4 / Version 2
File size : 6.66 GiB
Duration : 1 h 31 min
Overall bit rate : 10.4 Mb/s
Encoded date : UTC 2017-11-26 23:41:56
Writing application : mkvmerge v17.0.0 ('Be Ur Friend') 64-bit
Writing library : libebml v1.3.5 + libmatroska v1.4.8
Video
ID : 1
Format : AVC
Format/Info : Advanced Video Codec
Format profile : [email protected]
Format settings : CABAC / 4 Ref Frames
Format settings, CABAC : Yes
Format settings, RefFrames : 4 frames
Codec ID : V_MPEG4/ISO/AVC
Duration : 1 h 31 min
Bit rate : 9 422 kb/s
Width : 1 920 pixels
Height : 1 036 pixels
Display aspect ratio : 1.85:1
Frame rate mode : Constant
Frame rate : 23.976 (24000/1001) FPS
Color space : YUV
Chroma subsampling : 4:2:0
Bit depth : 8 bits
Scan type : Progressive
Bits/(Pixel*Frame) : 0.198
Stream size : 6.00 GiB (90%)
Writing library : x264 core 142 r2431+42 c69a006 tMod [[email protected]:2:0 X86_64]
Encoding settings : cabac=1 / ref=4 / deblock=1:-3:-3 / analyse=0x3:0x113 / me=umh / subme=10 / psy=1 / fade_compensate=0.00 / psy_rd=1.00:0.05 / mixed_ref=1 / me_range=48 / chroma_me=1 / trellis=2 / 8x8dct=1 / cqm=0 / deadzone=21,11 / fast_pskip=0 / chroma_qp_offset=-2 / threads=12 / lookahead_threads=2 / sliced_threads=0 / nr=0 / decimate=1 / interlaced=0 / bluray_compat=0 / constrained_intra=0 / fgo=0 / bframes=8 / b_pyramid=2 / b_adapt=2 / b_bias=0 / direct=3 / weightb=1 / open_gop=0 / weightp=2 / keyint=250 / keyint_min=23 / scenecut=40 / intra_refresh=0 / rc_lookahead=40 / rc=crf / mbtree=0 / crf=18.0000 / qcomp=0.60 / qpmin=0:0:0 / qpmax=69:69:69 / qpstep=4 / vbv_maxrate=50000 / vbv_bufsize=45000 / crf_max=0.0 / nal_hrd=none / filler=0 / ip_ratio=1.40 / pb_ratio=1.30 / aq=3:1.00 / aq-sensitivity=10.00 / aq-factor=1.00:1.00:1.00 / aq2=0 / aq3=0
Language : English
Default : Yes
Forced : No
Color range : Limited
Matrix coefficients : BT.709
Audio #1
ID : 2
Format : AC-3
Format/Info : Audio Coding 3
Format settings, Endianness : Big
Codec ID : A_AC3
Duration : 1 h 31 min
Bit rate mode : Constant
Bit rate : 384 kb/s
Channel(s) : 6 channels
Channel positions : Front: L C R, Side: L R, LFE
Sampling rate : 48.0 kHz
Frame rate : 31.250 FPS (1536 SPF)
Bit depth : 16 bits
Compression mode : Lossy
Stream size : 250 MiB (4%)
Title : iTunes
Language : Russian
Service kind : Complete Main
Default : Yes
Forced : No
Audio #2
ID : 3
Format : AC-3
Format/Info : Audio Coding 3
Format settings, Endianness : Big
Codec ID : A_AC3
Duration : 1 h 31 min
Bit rate mode : Constant
Bit rate : 640 kb/s
Channel(s) : 6 channels
Channel positions : Front: L C R, Side: L R, LFE
Sampling rate : 48.0 kHz
Frame rate : 31.250 FPS (1536 SPF)
Bit depth : 16 bits
Compression mode : Lossy
Stream size : 418 MiB (6%)
Title : Original
Language : English
Service kind : Complete Main
Default : No
Forced : No
Text
ID : 4
Format : UTF-8
Codec ID : S_TEXT/UTF8
Codec ID/Info : UTF-8 Plain Text
Duration : 1 h 22 min
Bit rate : 65 b/s
Count of elements : 1450
Stream size : 39.8 KiB (0%)
Title : Full
Language : English
Default : No
Forced : No
Menu
00:00:00.000 : en:1
00:09:27.000 : en:2
00:19:44.000 : en:3
00:28:20.000 : en:4
00:36:35.000 : en:5
00:47:52.000 : en:6
00:58:57.000 : en:7
01:06:56.000 : en:8
01:16:29.000 : en:9
01:27:54.000 : en:10

Релиз от: Автор релиза:
Подпишись на меня, кликни по картинке > :



   Похожие торренты   Торрент   Размер 
В этой теме нет новых непрочитанных сообщений. Реальная белка 2 / The Nut Job 2: Nutty by Nature (2017) BDRip от ExKinoRay | iTunes

292 | 5

1.42 ГБ

В этой теме нет новых непрочитанных сообщений. Реальная белка 2 / The Nut Job 2: Nutty by Nature (2017) BDRip от MegaPeer | iTunes

5587 | 254

1.42 ГБ

В этой теме нет новых непрочитанных сообщений. Реальная белка 2 / The Nut Job 2: Nutty by Nature (2017) BDRip от MegaPeer | iTunes

131 | 10

747.05 МБ

В этой теме нет новых непрочитанных сообщений. Реальная белка 2 / The Nut Job 2: Nutty by Nature (2017) BDRip-AVC от HELLYWOOD | iTunes

941 | 62

2.14 ГБ

В этой теме нет новых непрочитанных сообщений. Реальная белка 2 / The Nut Job 2: Nutty by Nature (2017) BDRip-AVC от HELLYWOOD | iTunes

867 | 42

1.46 ГБ

В этой теме нет новых непрочитанных сообщений. Реальная белка 2 / The Nut Job 2: Nutty by Nature (2017) BDRip 720p от HELLYWOOD | iTunes

502 | 36

4.33 ГБ

В этой теме нет новых непрочитанных сообщений. Реальная белка 2 / The Nut Job 2: Nutty by Nature (2017) HDRip от Kaztorrents | КПК | iTunes

62 | 9

346.68 МБ




Вы не можете начинать темы
Вы не можете отвечать на сообщения
Вы не можете редактировать свои сообщения
Вы не можете удалять свои сообщения
Вы не можете добавлять вложения

Перейти:  
Для Мосгорсуда, Роскомнадзора и рекламодателей: mosgorsud-torrent[собачка]yandex.ru
 Вход
ppkBB3cker v.2 © 2008-2014 @ PPK
[ Time : 0.132s | 17 Queries | GZIP : Off ]

cron