img image001 image001 image001 image001 image001 image001 image001 image001 image001 image001 image001 image001 image001 image001 image001

Planets Sun Sun Sun
Статистика раздачи
Автор: Nickolas3434 | Размер: 36.74 ГБ | Добавлен: 23 ноя 2017
Раздают: 0    Качают: 0
Скачать торрент
Скачать торрент
Описание торрента

СообщениеДобавлено: 23 ноя 2017 

Информация о фильме
Название: Геркулес
Оригинальное название: Hercules
Год выхода: 1998-1999
Жанр: Мультфильм, семейный, приключения, история
Режиссер: Тэд Стоунз, Фил Вайнштейн
В ролях: Т.Донован, Ф. Стюарт, С. Бэрнхард, Дж. Вудс и др.
О фильме: Прототипом главного героя этого фильма стал получеловек-полубог — сын Зевса и Геры — воспетый в античных легендах герой Геркулес. В мультсериале Геркулес — веселый и бесшабашный тинэйджер, который наделен не только горой мускулов, но и интеллектом. Он должен не только совершать подвиги, сражаясь с монстрами, но и достойно учиться в академии Прометея, чтобы не просрамить отца и стать настоящим героем.
Вместе с юным Геркулесом вам предстоит пережить невероятные и смешные приключения, совершить много подвигов, не раз побывать в царстве мертвых, где правит Аид…

Страна: США
Студия: Walt Disney Television
Продолжительность: ~00:21:57
Перевод: Профессиональный (дублированный): Невафильм (Нева-1)
Файл
Кодек: MPEG2
Качество: DVB
Видео: 720x576 (4:3), ~2000 kbps, 25.000 fps
Звук: MP2, 48 kHz, 2ch, 192 kbps
Субтитры: Отсутствуют
Семпл
Формат : MPEG-PS
Размер файла : 528 Мбайт
Продолжительность : 21 м.
Общий поток : 3356 Кбит/сек
Видео
Идентификатор : 224 (0xE0)
Формат : MPEG Video
Версия формата : Version 2
Профиль формата : [email protected]
Параметр BVOP формата : Да
Параметр матрицы формата : По умолчанию
Продолжительность : 21 м.
Вид битрейта : Переменный
Битрейт : 3097 Кбит/сек
Номинальный битрейт : 15,0 Мбит/сек
Ширина : 720 пикс.
Высота : 576 пикс.
Соотношение сторон : 4:3
Частота кадров : 25,000 кадр/сек
Стандарт вещания : PAL
Цветовое пространство : YUV
Подвыборка цветности : 4:2:0
Битовая глубина : 8 бит
Тип развёртки : Чересстрочная
Порядок развёртки : Верхнее поле первое
Метод сжатия : С потерями
Бит/(Пиксели*Кадры) : 0.299
Размер потока : 487 Мбайт (92%)
Аудио
Идентификатор : 192 (0xC0)
Формат : MPEG Audio
Версия формата : Version 1
Профиль формата : Layer 2
Продолжительность : 21 м.
Вид битрейта : Постоянный
Битрейт : 192 Кбит/сек
Канал(ы) : 2 канала(ов)
Частота : 48,0 КГц
Метод сжатия : С потерями
Размер потока : 30,2 Мбайт (6%)




   Похожие торренты   Торрент   Размер 
В этой теме нет новых непрочитанных сообщений. Геркулес / Hercules [01-04 из 66] (1998) SATRip от ExKinoRay | D

0 | 0

4.44 ГБ

В этой теме нет новых непрочитанных сообщений. Геркулес / Hercules [01-04 из 66] (1998) SATRip от ExKinoRay | D

0 | 0

4.72 ГБ

В этой теме нет новых непрочитанных сообщений. Геркулес / Hercules [01-04 из 66] (1998) SATRip от ExKinoRay | D

0 | 0

10.25 ГБ

В этой теме нет новых непрочитанных сообщений. Геркулес / Hercules [01-04 из 66] (1998) SATRip от ExKinoRay | D

0 | 0

1.52 ГБ

В этой теме нет новых непрочитанных сообщений. Геркулес / Hercules [01-04 из 66] (1998) SATRip от ExKinoRay | D

0 | 0

2.92 ГБ

В этой теме нет новых непрочитанных сообщений. Геркулес / Hercules [01-04 из 66] (1998) SATRip от ExKinoRay | D

0 | 0

9.37 ГБ

В этой теме нет новых непрочитанных сообщений. Геркулес / Hercules [01-04 из 66] (1998) SATRip от ExKinoRay | D

0 | 0

8.04 ГБ




Вы не можете начинать темы
Вы не можете отвечать на сообщения
Вы не можете редактировать свои сообщения
Вы не можете удалять свои сообщения
Вы не можете добавлять вложения

Перейти:  
Для Мосгорсуда, Роскомнадзора и рекламодателей: mosgorsud-torrent[собачка]yandex.ru
 Вход
ppkBB3cker v.2 © 2008-2014 @ PPK
[ Time : 0.035s | 18 Queries | GZIP : Off ]

cron