img image001 image001 image001 image001 image001 image001 image001 image001 image001 image001 image001 image001 image001 image001 image001

Planets Sun Sun Sun
Статистика раздачи
Автор: Nickolas3434 | Размер: 8.78 ГБ | Добавлен: 19 ноя 2017
Раздают: 45    Качают: 4
Скачать торрент
Скачать торрент
Описание торрента

СообщениеДобавлено: 19 ноя 2017 

Информация о фильме
Название: Тачки 3
Оригинальное название: Cars 3
Год выпуска: 2017
Жанр: Мультфильм, комедия, приключения, семейный, спорт, полнометражный
Выпущено: США, Walt Disney Pictures, Pixar Animation Studios
Режиссер: Джон Лассетер, Джо Рэнфт
В ролях: Оуэн Уилсон, Пол Ньюман, Бонни Хант, Ларри Кейбл Гай, Чич Марин, Тони Шэлоуб, Гуидо Куарони, Дженифер Льюис, Пол Дули, Майкл Уоллис
О фильме: Ты стопроцентно уверен, что рождён побеждать! И Кубку Большого Поршня - призу за участие в гонках, не уйти от того, чей девиз таков - "летай как бабочка, жаль как пчела"! Интересно, что же должно произойти с тобой, таким "звёздным гонщиком", чтобы ты в конце концов понял, что может быть "первый" - не всегда честный, "второй" - не совсем лузер, а близкие друзья в жизни намного важнее, чем фары на ночном шоссе?

Качество: BDRip (1080p)
Видео: MPEG-4 AVC, 7326 Кбит/с, 1920x804, 23.976 кадр/с
Аудио: Русский, украинский, казахский (AC3, 6 ch, 640 Кбит/с), украинский, английский (DTS, 6 ch, 1509 Кбит/с)
Размер: 8.78 ГБ
Продолжительность: 01:42:23
Перевод: Дублированный
Субтитры: Русские, английские
Озвучивание - (Лицензия)
Сохранены оригинальные чаптеры как на Blu-Ray.
x264 [info]: frame I:1311 Avg QP:14.10 size:244589
x264 [info]: frame P:45995 Avg QP:17.09 size: 64870
x264 [info]: frame B:100027 Avg QP:18.43 size: 23233
x264 [info]: consecutive B-frames: 10.4% 5.3% 12.5% 28.1% 20.5% 20.6% 1.5% 0.5% 0.1% 0.1% 0.5%
x264 [info]: mb I I16..4: 5.9% 71.2% 22.9%
x264 [info]: mb P I16..4: 1.7% 12.3% 2.2% P16..4: 28.3% 29.4% 10.6% 2.1% 0.3% skip:13.1%
x264 [info]: mb B I16..4: 0.6% 2.1% 0.4% B16..8: 32.9% 21.7% 3.3% direct: 5.1% skip:34.0% L0:41.9% L1:43.8% BI:14.3%
x264 [info]: 8x8 transform intra:73.2% inter:53.7%
x264 [info]: direct mvs spatial:96.4% temporal:3.6%
x264 [info]: coded y,uvDC,uvAC intra: 76.6% 79.7% 52.3% inter: 24.8% 24.8% 12.2%
x264 [info]: i16 v,h,dc,p: 26% 26% 6% 42%
x264 [info]: i8 v,h,dc,ddl,ddr,vr,hd,vl,hu: 9% 17% 11% 8% 10% 8% 14% 9% 15%
x264 [info]: i4 v,h,dc,ddl,ddr,vr,hd,vl,hu: 30% 17% 12% 5% 7% 6% 9% 5% 9%
x264 [info]: i8c dc,h,v,p: 30% 40% 16% 14%
x264 [info]: Weighted P-Frames: Y:1.9% UV:1.3%
x264 [info]: ref P L0: 58.4% 9.5% 18.0% 6.8% 6.1% 1.1% 0.0%
x264 [info]: ref B L0: 82.1% 12.6% 3.9% 1.3%
x264 [info]: ref B L1: 94.6% 5.4%
x264 [info]: kb/s:7327.24

Общее
Уникальный идентификатор : 183887636862741247227057471604335886046 (0x8A57787ACABB0462ADCC084B1028BEDE)
Полное имя : D:ЗагрузкиCars.3.2017.x264.BDRip.(1080p).OlLanDGroup.mkv
Формат : Matroska
Версия формата : Version 2
Размер файла : 8,78 Гбайт
Продолжительность : 1 ч. 42 м.
Общий поток : 12,3 Мбит/сек
Название фильма : Тачки 3.2017.Rip by: ollan
Дата кодирования : UTC 2017-11-17 22:20:13
Программа кодирования : mkvmerge v5.6.0 ('Kenya Kane') built on May 27 2012 16:44:04
Библиотека кодирования : libebml v1.2.3 + libmatroska v1.3.0
Attachements : Cover - Cars.3.png
Видео
Идентификатор : 1
Формат : AVC
Формат/Информация : Advanced Video Codec
Профиль формата : [email protected]
Параметр CABAC формата : Да
Параметр ReFrames формата : 5 кадров
Идентификатор кодека : V_MPEG4/ISO/AVC
Продолжительность : 1 ч. 42 м.
Битрейт : 7326 Кбит/сек
Ширина : 1920 пикселей
Высота : 804 пикселя
Соотношение сторон : 2,40:1
Режим частоты кадров : Постоянный
Частота кадров : 23,976 (24000/1001) кадра/сек
Цветовое пространство : YUV
Субдискретизация насыщенности : 4:2:0
Битовая глубина : 8 бит
Тип развёртки : Прогрессивная
Бит/(Пиксели*Кадры) : 0.198
Размер потока : 5,07 Гбайт (58%)
Библиотека кодирования : x264 core 146 r2538 121396c
Настройки программы : cabac=1 / ref=5 / deblock=1:-3:-3 / analyse=0x3:0x133 / me=umh / subme=11 / psy=1 / psy_rd=1.00:0.00 / mixed_ref=1 / me_range=64 / chroma_me=1 / trellis=2 / 8x8dct=1 / cqm=0 / deadzone=21,11 / fast_pskip=0 / chroma_qp_offset=-2 / threads=12 / lookahead_threads=3 / sliced_threads=0 / nr=0 / decimate=0 / interlaced=0 / bluray_compat=0 / constrained_intra=0 / bframes=10 / b_pyramid=2 / b_adapt=2 / b_bias=0 / direct=3 / weightb=1 / open_gop=0 / weightp=2 / keyint=240 / keyint_min=23 / scenecut=40 / intra_refresh=0 / rc_lookahead=40 / rc=2pass / mbtree=0 / bitrate=7326 / ratetol=1.0 / qcomp=0.60 / qpmin=0 / qpmax=69 / qpstep=4 / cplxblur=20.0 / qblur=0.5 / vbv_maxrate=50000 / vbv_bufsize=62500 / nal_hrd=none / filler=0 / ip_ratio=1.40 / pb_ratio=1.30 / aq=1:1.00
Язык : English
Default : Да
Forced : Нет
Аудио #1
Идентификатор : 2
Формат : AC-3
Формат/Информация : Audio Coding 3
Расширение режима : CM (complete main)
Параметр Endianness формата : Big
Идентификатор кодека : A_AC3
Продолжительность : 1 ч. 42 м.
Вид битрейта : Постоянный
Битрейт : 640 Кбит/сек
Каналы : 6 каналов
Расположение каналов : Front: L C R, Side: L R, LFE
Частота : 48,0 КГц
Частота кадров : 31,250 кадров/сек (1536 spf)
Метод сжатия : С потерями
Размер потока : 469 Мбайт (5%)
Заголовок : Дублированный (Лицензия)
Язык : Russian
Default : Да
Forced : Нет
Аудио #2
Идентификатор : 3
Формат : AC-3
Формат/Информация : Audio Coding 3
Расширение режима : CM (complete main)
Параметр Endianness формата : Big
Идентификатор кодека : A_AC3
Продолжительность : 1 ч. 42 м.
Вид битрейта : Постоянный
Битрейт : 640 Кбит/сек
Каналы : 6 каналов
Расположение каналов : Front: L C R, Side: L R, LFE
Частота : 48,0 КГц
Частота кадров : 31,250 кадров/сек (1536 spf)
Метод сжатия : С потерями
Размер потока : 469 Мбайт (5%)
Заголовок : Дублированный
Язык : Ukrainian
Default : Нет
Forced : Нет
Аудио #3
Идентификатор : 4
Формат : AC-3
Формат/Информация : Audio Coding 3
Расширение режима : CM (complete main)
Параметр Endianness формата : Big
Идентификатор кодека : A_AC3
Продолжительность : 1 ч. 42 м.
Вид битрейта : Постоянный
Битрейт : 640 Кбит/сек
Каналы : 6 каналов
Расположение каналов : Front: L C R, Side: L R, LFE
Частота : 48,0 КГц
Частота кадров : 31,250 кадров/сек (1536 spf)
Метод сжатия : С потерями
Размер потока : 469 Мбайт (5%)
Заголовок : Дублированный (Лицензия)
Язык : Kazakh
Default : Нет
Forced : Нет
Аудио #4
Идентификатор : 5
Формат : DTS
Формат/Информация : Digital Theater Systems
Режим : 16
Параметр Endianness формата : Big
Идентификатор кодека : A_DTS
Продолжительность : 1 ч. 42 м.
Вид битрейта : Постоянный
Битрейт : 1509 Кбит/сек
Каналы : 6 каналов
Расположение каналов : Front: L C R, Side: L R, LFE
Частота : 48,0 КГц
Частота кадров : 93,750 кадра/сек (512 spf)
Битовая глубина : 24 бит
Метод сжатия : С потерями
Размер потока : 1,08 Гбайт (12%)
Заголовок : Дублированный
Язык : Ukrainian
Default : Нет
Forced : Нет
Аудио #5
Идентификатор : 6
Формат : DTS
Формат/Информация : Digital Theater Systems
Режим : 16
Параметр Endianness формата : Big
Идентификатор кодека : A_DTS
Продолжительность : 1 ч. 42 м.
Вид битрейта : Постоянный
Битрейт : 1509 Кбит/сек
Каналы : 6 каналов
Расположение каналов : Front: L C R, Side: L R, LFE
Частота : 48,0 КГц
Частота кадров : 93,750 кадра/сек (512 spf)
Битовая глубина : 24 бит
Метод сжатия : С потерями
Размер потока : 1,08 Гбайт (12%)
Язык : English
Default : Нет
Forced : Нет
Текст #1
Идентификатор : 7
Формат : UTF-8
Идентификатор кодека : S_TEXT/UTF8
Идентификатор кодека/Информация : UTF-8 Plain Text
Заголовок : Forced
Язык : Russian
Default : Да
Forced : Нет
Текст #2
Идентификатор : 8
Формат : UTF-8
Идентификатор кодека : S_TEXT/UTF8
Идентификатор кодека/Информация : UTF-8 Plain Text
Заголовок : Full
Язык : Russian
Default : Нет
Forced : Нет
Текст #3
Идентификатор : 9
Формат : UTF-8
Идентификатор кодека : S_TEXT/UTF8
Идентификатор кодека/Информация : UTF-8 Plain Text
Заголовок : Full
Язык : English
Default : Нет
Forced : Нет
Меню
00:00:00.000 : en:Champ McQueen
00:04:57.255 : en:Storm Front
00:10:54.988 : en:Crash
00:13:59.422 : en:Wake-up Call
00:18:15.344 : en:Phone Call
00:21:07.641 : en:Modern Training
00:34:08.880 : en:Deal
00:37:52.103 : en:Beach
00:42:44.812 : en:Crazy Eight
00:49:44.398 : en:Cruz's Dream
00:53:57.734 : en:Facetime
00:58:17.702 : en:Olive Branch
00:59:27.522 : en:Smokey
01:02:15.940 : en:Hud's Win
01:06:35.533 : en:It's Over
01:08:33.109 : en:Old School Training
01:15:48.126 : en:Florida Arrival
01:20:57.852 : en:Pit Stop
01:29:42.418 : en:Victory Lane
01:32:17.031 : en:Epilogue
01:34:00.092 : en:End Credits





Релиз от: Rip by:



   Похожие торренты   Торрент   Размер 
В этой теме нет новых непрочитанных сообщений. Тачки 3 / Cars 3 (2017) WEB-DLRip-AVC от OlLanDGroup | iTunes

0 | 0

2.43 ГБ

В этой теме нет новых непрочитанных сообщений. Тачки 3 / Cars 3 (2017) WEB-DLRip-AVC от OlLanDGroup | iTunes

0 | 0

2.18 ГБ

В этой теме нет новых непрочитанных сообщений. Тачки / Тачки 2 / Мультачки: Байки Мэтра / Cars / Cars 2 / Mater's Tall Tales (2006-2011) 3xDVD9 от Youtracker | D | Лицензия

28 | 28

21.76 ГБ

В этой теме нет новых непрочитанных сообщений. Тачки 3 / Cars 3 (2017) Blu-ray EUR 1080p | Лицензия

7 | 11

33.32 ГБ

В этой теме нет новых непрочитанных сообщений. Тачки 3 3D / Cars 3 3D (2017) Blu-Ray EUR 1080p | 3D-Video | Лицензия

11 | 13

32.15 ГБ

В этой теме нет новых непрочитанных сообщений. Тачки 3 / Cars 3 (2017) BDRemux 1080p | 3D-Video | Лицензия

7 | 3

26.17 ГБ

В этой теме нет новых непрочитанных сообщений. Тачки 3 / Cars 3 (2017) BDRip-HEVC 1080p от HEVC CLUB | Лицензия

246 | 46

4.84 ГБ




Вы не можете начинать темы
Вы не можете отвечать на сообщения
Вы не можете редактировать свои сообщения
Вы не можете удалять свои сообщения
Вы не можете добавлять вложения

Перейти:  
Для Мосгорсуда, Роскомнадзора и рекламодателей: mosgorsud-torrent[собачка]yandex.ru
 Вход
ppkBB3cker v.2 © 2008-2014 @ PPK
[ Time : 0.038s | 17 Queries | GZIP : Off ]

cron