img image001 image001 image001 image001 image001 image001 image001 image001 image001 image001 image001 image001 image001 image001 image001

Planets Sun Sun Sun
Статистика раздачи
Автор: Nickolas3434 | Размер: 1.38 ГБ | Добавлен: 19 ноя 2017
Раздают: 66    Качают: 6
Скачать торрент
Скачать торрент
Описание торрента

СообщениеДобавлено: 19 ноя 2017 

Информация о фильме
Название: Тачки 3
Оригинальное название: Cars 3
Год выпуска: 2017
Жанр: Мультфильм, комедия, приключения, семейный, спорт, полнометражный
Режиссер: Джон Лассетер, Джо Рэнфт
В ролях: Оуэн Уилсон, Пол Ньюман, Бонни Хант, Ларри Кейбл Гай, Чич Марин, Тони Шэлоуб, Гуидо Куарони, Дженифер Льюис, Пол Дули, Майкл Уоллис
Описание: Ты стопроцентно уверен, что рождён побеждать! И Кубку Большого Поршня - призу за участие в гонках, не уйти от того, чей девиз таков - "летай как бабочка, жаль как пчела"! Интересно, что же должно произойти с тобой, таким "звёздным гонщиком", чтобы ты в конце концов понял, что может быть "первый" - не всегда честный, "второй" - не совсем лузер, а близкие друзья в жизни намного важнее, чем фары на ночном шоссе?...

Страна: США
Студия: Walt Disney Pictures, Pixar Animation Studios
Продолжительность: 01:42:24
Перевод: Дублированный | iTunes
Субтитры: Русские, английские
Файл
Формат: MKV
Качество: HDRip-AVC
Видео: MPEG-4 AVC, 720x302 (2.40:1), 1485 Kbit/s, 23.976 fps, 0,285 bpp
Аудио: 48 kHz, AC3, 5.1 ch, 384 Kbps | RUS
Навигация по главам: есть
General
Unique ID : 208179433385229102304361036072896243627 (0x9C9DE6844C780752AF2F54F0E39527AB)
Complete name : D:Cars.3.2017.HDRip.AVC.ExKinoRay.mkv
Format : Matroska
Format version : Version 2
File size : 1.34 GiB
Duration : 1 h 42 min
Overall bit rate : 1 871 kb/s
Movie name : Cars 3 2017 from ExKinoRay
Encoded date : UTC 2017-10-26 12:15:07
Writing application : mkvmerge v5.6.0 ('Kenya Kane') built on May 27 2012 16:44:04
Writing library : libebml v1.2.3 + libmatroska v1.3.0
Video
ID : 1
Format : AVC
Format/Info : Advanced Video Codec
Format profile : [email protected]
Format settings, CABAC : Yes
Format settings, ReFrames : 11 frames
Codec ID : V_MPEG4/ISO/AVC
Duration : 1 h 42 min
Bit rate : 1 485 kb/s
Width : 720 pixels
Height : 302 pixels
Display aspect ratio : 2.40:1
Frame rate mode : Constant
Frame rate : 23.976 (24000/1001) FPS
Original frame rate : 23.976 (23976/1000) FPS
Color space : YUV
Chroma subsampling : 4:2:0
Bit depth : 8 bits
Scan type : Progressive
Bits/(Pixel*Frame) : 0.285
Stream size : 1.04 GiB (77%)
Title : Enigma
Writing library : x264 core 152 r2851 ba24899
Encoding settings : cabac=1 / ref=11 / deblock=1:-3:-3 / analyse=0x3:0x113 / me=umh / subme=10 / psy=1 / psy_rd=1.00:0.05 / mixed_ref=1 / me_range=32 / chroma_me=1 / trellis=2 / 8x8dct=1 / cqm=0 / deadzone=21,11 / fast_pskip=1 / chroma_qp_offset=-3 / threads=9 / lookahead_threads=2 / sliced_threads=0 / nr=0 / decimate=0 / interlaced=0 / bluray_compat=0 / constrained_intra=0 / bframes=10 / b_pyramid=2 / b_adapt=2 / b_bias=0 / direct=3 / weightb=1 / open_gop=0 / weightp=2 / keyint=240 / keyint_min=23 / scenecut=40 / intra_refresh=0 / rc_lookahead=40 / rc=2pass / mbtree=0 / bitrate=1485 / ratetol=1.0 / qcomp=0.60 / qpmin=0 / qpmax=51 / qpstep=4 / cplxblur=20.0 / qblur=0.5 / vbv_maxrate=50000 / vbv_bufsize=62500 / nal_hrd=none / filler=0 / ip_ratio=1.40 / pb_ratio=1.30 / aq=1:1.00
Default : Yes
Forced : No
Color range : Limited
Color primaries : BT.709
Transfer characteristics : BT.709
Matrix coefficients : BT.709
Audio
ID : 2
Format : AC-3
Format/Info : Audio Coding 3
Mode extension : CM (complete main)
Format settings, Endianness : Big
Codec ID : A_AC3
Duration : 1 h 42 min
Bit rate mode : Constant
Bit rate : 384 kb/s
Channel(s) : 6 channels
Channel positions : Front: L C R, Side: L R, LFE
Sampling rate : 48.0 kHz
Frame rate : 31.250 FPS (1536 spf)
Compression mode : Lossy
Stream size : 281 MiB (21%)
Title : Dub (iTunes)
Language : Russian
Default : Yes
Forced : No
Text #1
ID : 3
Format : UTF-8
Codec ID : S_TEXT/UTF8
Codec ID/Info : UTF-8 Plain Text
Language : Russian
Default : No
Forced : No
Text #2
ID : 4
Format : UTF-8
Codec ID : S_TEXT/UTF8
Codec ID/Info : UTF-8 Plain Text
Language : English
Default : No
Forced : No
Menu
00:00:00.000 : en:Champ McQueen
00:04:57.255 : en:Storm Front
00:10:54.988 : en:Crash
00:13:59.422 : en:Wake-up Call
00:18:15.344 : en:Phone Call
00:21:07.641 : en:Modern Training
00:34:08.880 : en:Deal
00:37:52.103 : en:Beach
00:42:44.812 : en:Crazy Eight
00:49:44.398 : en:Cruz's Dream
00:53:57.734 : en:Facetime
00:58:17.702 : en:Olive Branch
00:59:27.522 : en:Smokey
01:02:15.940 : en:Hud's Win
01:06:35.533 : en:It's Over
01:08:33.109 : en:Old School Training
01:15:48.126 : en:Florida Arrival
01:20:57.852 : en:Pit Stop
01:29:42.418 : en:Victory Lane
01:32:17.031 : en:Epilogue
01:34:00.092 : en:End Credits


Релиз от:
Автор релиза:



   Похожие торренты   Торрент   Размер 
В этой теме нет новых непрочитанных сообщений. Тачки 3 / Cars 3 (2017) HDRip-AVC от ExKinoRay | iTunes

529 | 0

1.34 ГБ

В этой теме нет новых непрочитанных сообщений. Тачки 3 / Cars 3 (2017) WEB-DL 720p от ExKinoRay | iTunes

690 | 14

4.86 ГБ

В этой теме нет новых непрочитанных сообщений. Тачки 3 / Cars 3 (2017) WEB-DL 1080p от ExKinoRay | iTunes

0 | 0

3.76 ГБ

В этой теме нет новых непрочитанных сообщений. Тачки 3 / Cars 3 (2017) WEB-DL 720p от ExKinoRay | iTunes

0 | 0

3.41 ГБ

В этой теме нет новых непрочитанных сообщений. Тачки 3 / Cars 3 (2017) BDRip 1080p от ExKinoRay | iTunes

515 | 19

9.8 ГБ

В этой теме нет новых непрочитанных сообщений. Тачки 3 / Cars 3 (2017) BDRemux 1080p от ExKinoRay | iTunes

82 | 13

18.92 ГБ

В этой теме нет новых непрочитанных сообщений. Тачки 3 / Cars 3 (2017) BDRemux 1080p от ExKinoRay | 3D-Video | iTunes

13 | 5

20.98 ГБ




Вы не можете начинать темы
Вы не можете отвечать на сообщения
Вы не можете редактировать свои сообщения
Вы не можете удалять свои сообщения
Вы не можете добавлять вложения

Перейти:  
Для Мосгорсуда, Роскомнадзора и рекламодателей: mosgorsud-torrent[собачка]yandex.ru
 Вход
ppkBB3cker v.2 © 2008-2014 @ PPK
[ Time : 0.029s | 17 Queries | GZIP : Off ]

cron