img image001 image001 image001 image001 image001 image001 image001 image001 image001 image001 image001 image001 image001 image001 image001

Planets Sun Sun Sun
Статистика раздачи
Автор: Nickolas3434 | Размер: 7.09 ГБ | Добавлен: 17 ноя 2017
Раздают: 4    Качают: 0
Скачать торрент
Скачать торрент
Описание торрента

СообщениеДобавлено: 17 ноя 2017 

Информация о фильме
Название: Американская история 2: Фивел едет на Запад
Оригинальное название: An American Tail: Fievel Goes West
Год выпуска: 1991
Страна: США
Жанр: Мультфильм
Продолжительность: 01:14:59
Перевод: Профессиональный (многоголосый закадровый), Авторский (одноголосый закадровый)
Режиссёр: Фил Ниббелинк, Саймон Уэллс
Роли озвучивали: Филлип Глассер, Джеймс Стюарт, Эрика Йон, Кэти Кавадини, Нехемия Персофф, Дом ДеЛуиз, Эми Ирвинг, Джон Клиз, Джон Ловиц, Джек Эйнджел
Описание: Коварный кот Кэт Р. Воул заманивает нашего героя на запад, где тот объединяет свои усилия со знаменитым псом Уайли Берпом в борьбе против зловещего заговора, цель которого — сделать из ничего не подозревающих мышей-поселенцев… гамбургеры!

Качество: BDRip 1080p
Формат: MKV
Видеокодек: H264
Аудиокодек: AC3
Видео: MPEG4 Video (H264), 1920x1040, 23.976fps, 12.0 Mbps
Аудио #1: Русский, Dolby AC3, 48000 Hz, 6ch, 448 kbps - Многоголосый
Аудио #2: Русский, Dolby AC3, 48000 Hz, 6ch, 448 kbps - Одноголосый, Михалёв
Аудио #3: Русский, Dolby AC3, 48000 Hz, 2ch, 192 kbps - Одноголосый, Гаврилов
Аудио #4: Английский, Dolby AC3, 48000 Hz, 6ch, 448 kbps
General
Unique ID : 245720663226246201256446852481667555096 (0xB8DC140D2FC68DE4A1114033626BDF18)
Complete name : D:Blu-Ray1991 Американская история 21991 Американская история 2.mkv
Format : Matroska
Format version : Version 4 / Version 2
File size : 7.09 GiB
Duration : 1 h 14 min
Overall bit rate : 13.5 Mb/s
Movie name : 1991 Американская история 2: Фивел едет на Запад/ispolkom
Encoded date : UTC 2017-11-16 22:45:04
Writing application : mkvmerge v8.3.0 ('Over the Horizon') 64bit
Writing library : libebml v1.3.1 + libmatroska v1.4.2
Video
ID : 1
Format : AVC
Format/Info : Advanced Video Codec
Format profile : [email protected]
Format settings : CABAC / 4 Ref Frames
Format settings, CABAC : Yes
Format settings, RefFrames : 4 frames
Codec ID : V_MPEG4/ISO/AVC
Duration : 1 h 14 min
Bit rate : 12.0 Mb/s
Width : 1 920 pixels
Height : 1 040 pixels
Display aspect ratio : 1.85:1
Frame rate mode : Constant
Frame rate : 23.976 (24000/1001) FPS
Color space : YUV
Chroma subsampling : 4:2:0
Bit depth : 8 bits
Scan type : Progressive
Bits/(Pixel*Frame) : 0.251
Stream size : 6.28 GiB (89%)
Title : 1991 Американская история 2: Фивел едет на Запад
Writing library : x264 core 146 r2538 121396c
Encoding settings : cabac=1 / ref=4 / deblock=1:-1:-1 / analyse=0x3:0x133 / me=umh / subme=11 / psy=1 / psy_rd=1.05:0.15 / mixed_ref=1 / me_range=32 / chroma_me=1 / trellis=2 / 8x8dct=1 / cqm=0 / deadzone=21,11 / fast_pskip=0 / chroma_qp_offset=-3 / threads=12 / lookahead_threads=3 / sliced_threads=0 / nr=0 / decimate=1 / interlaced=0 / bluray_compat=0 / constrained_intra=0 / bframes=10 / b_pyramid=2 / b_adapt=2 / b_bias=0 / direct=3 / weightb=1 / open_gop=0 / weightp=2 / keyint=250 / keyint_min=23 / scenecut=40 / intra_refresh=0 / rc=2pass / mbtree=0 / bitrate=12000 / ratetol=1.0 / qcomp=0.60 / qpmin=0 / qpmax=69 / qpstep=4 / cplxblur=20.0 / qblur=0.5 / ip_ratio=1.40 / pb_ratio=1.30 / aq=2:1.00
Language : English
Default : Yes
Forced : No
Audio #1
ID : 2
Format : AC-3
Format/Info : Audio Coding 3
Format settings, Endianness : Big
Codec ID : A_AC3
Duration : 1 h 14 min
Bit rate mode : Constant
Bit rate : 448 kb/s
Channel(s) : 6 channels
Channel positions : Front: L C R, Side: L R, LFE
Sampling rate : 48.0 kHz
Frame rate : 31.250 FPS (1536 SPF)
Bit depth : 16 bits
Compression mode : Lossy
Stream size : 240 MiB (3%)
Title : Многоголосый
Language : Russian
Service kind : Complete Main
Default : Yes
Forced : No
Audio #2
ID : 3
Format : AC-3
Format/Info : Audio Coding 3
Format settings, Endianness : Big
Codec ID : A_AC3
Duration : 1 h 14 min
Bit rate mode : Constant
Bit rate : 448 kb/s
Channel(s) : 6 channels
Channel positions : Front: L C R, Side: L R, LFE
Sampling rate : 48.0 kHz
Frame rate : 31.250 FPS (1536 SPF)
Bit depth : 16 bits
Compression mode : Lossy
Stream size : 240 MiB (3%)
Title : Одноголосый, Михалёв
Language : Russian
Service kind : Complete Main
Default : No
Forced : No
Audio #3
ID : 4
Format : AC-3
Format/Info : Audio Coding 3
Format settings, Endianness : Big
Codec ID : A_AC3
Duration : 1 h 14 min
Bit rate mode : Constant
Bit rate : 192 kb/s
Channel(s) : 2 channels
Channel positions : Front: L R
Sampling rate : 48.0 kHz
Frame rate : 31.250 FPS (1536 SPF)
Bit depth : 16 bits
Compression mode : Lossy
Stream size : 103 MiB (1%)
Title : Одноголосый, Гаврилов
Language : Russian
Service kind : Complete Main
Default : No
Forced : No
Audio #4
ID : 5
Format : AC-3
Format/Info : Audio Coding 3
Format settings, Endianness : Big
Codec ID : A_AC3
Duration : 1 h 14 min
Bit rate mode : Constant
Bit rate : 448 kb/s
Channel(s) : 6 channels
Channel positions : Front: L C R, Side: L R, LFE
Sampling rate : 48.0 kHz
Frame rate : 31.250 FPS (1536 SPF)
Bit depth : 16 bits
Compression mode : Lossy
Stream size : 240 MiB (3%)
Language : English
Service kind : Complete Main
Default : No
Forced : No
Text
ID : 6
Format : UTF-8
Codec ID : S_TEXT/UTF8
Codec ID/Info : UTF-8 Plain Text
Duration : 1 h 9 min
Bit rate : 62 b/s
Count of elements : 1158
Stream size : 31.9 KiB (0%)
Language : English
Default : No
Forced : No
Menu
00:00:00.000 : en:Chapter 01
00:07:24.527 : en:Chapter 02
00:17:01.353 : en:Chapter 03
00:26:50.817 : en:Chapter 04
00:35:11.359 : en:Chapter 05
00:46:55.062 : en:Chapter 06
00:56:19.709 : en:Chapter 07
01:07:10.067 : en:Chapter 08
01:09:44.555 : en:Chapter 09




   Похожие торренты   Торрент   Размер 
В этой теме нет новых непрочитанных сообщений. Американская история 2: Фивел едет на Запад / An American Tail: Fievel Goes West (1991) HDRip-AVC | P

7 | 0

1.86 ГБ

В этой теме нет новых непрочитанных сообщений. Ингрид едет на Запад / Ingrid Goes West (2017) BDRip 1080p | L

19 | 3

6.48 ГБ

В этой теме нет новых непрочитанных сообщений. Американская история / An American Tail (1986) BDRip от MediaClub

93 | 26

1.37 ГБ

В этой теме нет новых непрочитанных сообщений. Американская история / An American Tail (1986) BDRip-AVC от MediaClub

13 | 25

2.7 ГБ

В этой теме нет новых непрочитанных сообщений. Американская история / An American Tail (1986) BDRip 720p от MediaClub | P, A

26 | 19

3.68 ГБ

В этой теме нет новых непрочитанных сообщений. Американская история / An American Tail (1986) BDRip 720p от MediaClub

26 | 18

4 ГБ

В этой теме нет новых непрочитанных сообщений. Ингрид едет на Запад / Ingrid Goes West (2017) BDRip 720p | L

27 | 4

3.31 ГБ




Вы не можете начинать темы
Вы не можете отвечать на сообщения
Вы не можете редактировать свои сообщения
Вы не можете удалять свои сообщения
Вы не можете добавлять вложения

Перейти:  
Для Мосгорсуда, Роскомнадзора и рекламодателей: mosgorsud-torrent[собачка]yandex.ru
 Вход
ppkBB3cker v.2 © 2008-2014 @ PPK
[ Time : 0.036s | 18 Queries | GZIP : Off ]

cron