img image001 image001 image001 image001 image001 image001 image001 image001 image001 image001 image001 image001 image001 image001 image001

Planets Sun Sun Sun
Статистика раздачи
Автор: Nickolas3434 | Размер: 9.06 ГБ | Добавлен: 10 ноя 2017
Раздают: 0    Качают: 0
Скачать торрент
Скачать торрент
Описание торрента

СообщениеДобавлено: 10 ноя 2017 




Тачки 3
Cars 3
«Гонка продолжается, пока сверкает молния»



#77
Год выпуска: 2017
Страна: США (Walt Disney Pictures, Pixar Animation Studios)
Жанр: Мультфильм, Комедия, Приключения, Семейный, Спорт
Продолжительность: 01:42:25
Перевод: Профессиональный дублированный - iTunes
Режиссер: Брайан Фи / Brian Fee


озвучивали (дублировали):
.............
Lightning McQueen - (Дмитрий Харатьян)
Cruz Ramirez - Кристела Алонзо (Ирина Пегова)
Smokey - Крис Купер (Рудольф Панков)
Sterling - Нэйтан Филлион (Станислав Стрелков)
Mater - Ларри-кабельщик (Сергей Кузнецов)
Jackson Storm - Арми Хаммер (Виктор Хориняк)
Dusty - Рэй Мальоцци (Владимир Антоник)
Luigi - Тони Шэлуб (Сергей Бызгу)
Sally - Бонни Хант (Алика Смехова)
Miss Fritter - Лиа ДеЛария (Елена Терновая)
Natalie Certain - Керри Вашингтон (Елена Летучая)
Hamilton - Льюис Хэмилтон (Александр Разбаш)
Doc Hudson - (Армен Джигарханян)
Ramone - Чич Марин (Андрей Мошков)



Описание: Встречайте самого знаменитого гонщика всех времен, легенду гоночного трека Молнию Маккуина!
Герой все еще продолжает показывать лучшие результаты на всех турнирах, однако победы даются ему не так легко, а конкуренция становится все жестче. Молнию Маккуина ждут захватывающие приключения, где он встретит новых друзей, а также поймет, что не только скорость и мощность мотора делают гонщика чемпионом.

Режиссёрский дебют Брайана Фи.
[*]Имена некоторых персонажей из нового поколения высокотехнологичных гоночных машин являются несколько изменёнными именами актёров озвучивания — Чейса Рэйслотта, к примеру, озвучивает профессиональный гонщик Чейс Эллиот.

Премьера: 10 июня 2017 (15 июня 2017)
Релиз на Blu-Ray (DVD) (Россия): 21 ноября 2017
Бюджет: $175 000 000
Кассовые сборы: $382 234 535

.



Качество: BDRip (by Ash61)
Контейнер: MKV
Формат 3D: Half OverUnder / Вертикальная анаморфная стереопара
Порядок ракурсов: левый ракурс первый


Видео: AVC / 1920х1080p / 23,976 fps / 11.0 Mbps
Аудио:
#1 - Русский / AC3 / 48 KHz / 5.1 ch / 384 Kbps (Дубляж - iTunes)
#2 - Украинский / AC3 / 48 KHz / 5.1 ch / 640 Kbps (Дубляж) (спасибо Hurtom!)
#3 - Английский / AC3 / 48 KHz / 5.1 ch / 640 Kbps (Original - BD 3D)
Субтитры (SRT):
Вшитые (softsub):
#1 - Русские Форсированные (включены по умолчанию)
#2 - Русские Полные
#3 - English SDH
Внешние (UTF-8):
#1 - Русские Форсированные (включены по умолчанию)
#2 - Русские Полные
General
Unique ID : 193071181135445769880095214509563993781 (0x9140282B8FC297DCA05688AD27665EB5)
Complete name : D:Cars3(2017)3D-halfOU(Ash61)iTunesCars3(2017)3D-halfOU(Ash61)iTunes.mkv
Format : Matroska
Format version : Version 2
File size : 9.06 GiB
Duration : 1 h 42 min
Overall bit rate : 12.7 Mb/s
Movie name : Тачки 3 / Cars 3 (2017) in 3D
Encoded date : UTC 2017-11-08 19:45:48
Writing application : mkvmerge v5.8.0 ('No Sleep / Pillow') built on Sep 2 2012 15:37:04
Writing library : libebml v1.2.3 + libmatroska v1.3.0
Video
ID : 1
Format : AVC
Format/Info : Advanced Video Codec
Format profile : [email protected]
Format settings, CABAC : Yes
Format settings, RefFrames : 4 frames
Codec ID : V_MPEG4/ISO/AVC
Duration : 1 h 42 min
Bit rate : 11.0 Mb/s
Width : 1 920 pixels
Height : 1 080 pixels
Display aspect ratio : 16:9
Frame rate mode : Constant
Frame rate : 23.976 (24000/1001) FPS
Color space : YUV
Chroma subsampling : 4:2:0
Bit depth : 8 bits
Scan type : Progressive
Bits/(Pixel*Frame) : 0.221
Stream size : 7.69 GiB (85%)
Title : BDRip by Ash61
Writing library : x264 core 146 r2538 121396c
Encoding settings : cabac=1 / ref=4 / deblock=1:-3:-3 / analyse=0x3:0x113 / me=umh / subme=10 / psy=1 / psy_rd=1.00:0.00 / mixed_ref=1 / me_range=32 / chroma_me=1 / trellis=2 / 8x8dct=1 / cqm=0 / deadzone=21,11 / fast_pskip=0 / chroma_qp_offset=-2 / threads=12 / lookahead_threads=2 / sliced_threads=0 / nr=0 / decimate=0 / interlaced=0 / bluray_compat=0 / constrained_intra=0 / bframes=8 / b_pyramid=2 / b_adapt=2 / b_bias=0 / direct=3 / weightb=1 / open_gop=0 / weightp=2 / keyint=250 / keyint_min=23 / scenecut=40 / intra_refresh=0 / rc_lookahead=60 / rc=2pass / mbtree=0 / bitrate=11000 / ratetol=1.0 / qcomp=0.70 / qpmin=0 / qpmax=69 / qpstep=4 / cplxblur=20.0 / qblur=0.5 / vbv_maxrate=40000 / vbv_bufsize=30000 / nal_hrd=none / filler=0 / frame-packing=4 / ip_ratio=1.40 / pb_ratio=1.30 / aq=1:0.70
Language : English
Default : Yes
Forced : No
Audio #1
ID : 2
Format : AC-3
Format/Info : Audio Coding 3
Format settings, Endianness : Big
Codec ID : A_AC3
Duration : 1 h 42 min
Bit rate mode : Constant
Bit rate : 384 kb/s
Channel(s) : 6 channels
Channel positions : Front: L C R, Side: L R, LFE
Sampling rate : 48.0 kHz
Frame rate : 31.250 FPS (1536 SPF)
Bit depth : 16 bits
Compression mode : Lossy
Stream size : 281 MiB (3%)
Title : Дубляж - iTunes
Language : Russian
Service kind : Complete Main
Default : Yes
Forced : No
Audio #2
ID : 3
Format : AC-3
Format/Info : Audio Coding 3
Format settings, Endianness : Big
Codec ID : A_AC3
Duration : 1 h 42 min
Bit rate mode : Constant
Bit rate : 640 kb/s
Channel(s) : 6 channels
Channel positions : Front: L C R, Side: L R, LFE
Sampling rate : 48.0 kHz
Frame rate : 31.250 FPS (1536 SPF)
Bit depth : 16 bits
Compression mode : Lossy
Stream size : 469 MiB (5%)
Title : Дубляж
Language : Ukrainian
Service kind : Complete Main
Default : No
Forced : No
Audio #3
ID : 4
Format : AC-3
Format/Info : Audio Coding 3
Format settings, Endianness : Big
Codec ID : A_AC3
Duration : 1 h 42 min
Bit rate mode : Constant
Bit rate : 640 kb/s
Channel(s) : 6 channels
Channel positions : Front: L C R, Side: L R, LFE
Sampling rate : 48.0 kHz
Frame rate : 31.250 FPS (1536 SPF)
Bit depth : 16 bits
Compression mode : Lossy
Stream size : 469 MiB (5%)
Title : Original
Language : English
Service kind : Complete Main
Default : No
Forced : No
Text #1
ID : 5
Format : UTF-8
Codec ID : S_TEXT/UTF8
Codec ID/Info : UTF-8 Plain Text
Title : Форсированные
Language : Russian
Default : Yes
Forced : No
Text #2
ID : 6
Format : UTF-8
Codec ID : S_TEXT/UTF8
Codec ID/Info : UTF-8 Plain Text
Title : Полные
Language : Russian
Default : No
Forced : No
Text #3
ID : 7
Format : UTF-8
Codec ID : S_TEXT/UTF8
Codec ID/Info : UTF-8 Plain Text
Title : SDH
Language : English
Default : No
Forced : No
Menu
00:00:00.000 : : 1. Champ McQueen
00:04:57.254 : : 2. Storm Front
00:10:54.986 : : 3. Crash
00:13:59.421 : : 4. Wake-up Call
00:18:15.344 : : 5. Phone Call
00:21:07.641 : : 6. Modern Training
00:34:08.880 : : 7. Deal
00:37:52.103 : : 8. Beach
00:42:44.811 : : 9. Crazy Eight
00:49:44.398 : : 10. Cruz's Dream
00:53:57.733 : : 11. Facetime
00:58:17.702 : : 12. Olive Branch
00:59:27.521 : : 13. Smokey
01:02:15.940 : : 14. Hud's Win
01:06:35.532 : : 15. It's Over
01:08:33.109 : : 16. Old School Training
01:15:48.126 : : 17. Florida Arrival
01:20:57.851 : : 18. Pit Stop
01:29:42.417 : : 19. Victory Lane
01:32:17.030 : : 20. Epilogue
01:34:00.091 : : 21. End Credits





















   Похожие торренты   Торрент   Размер 
В этой теме нет новых непрочитанных сообщений. Тачки 3 / Cars 3 (2017) BDRip 1080p от Ash61 | 3D-Video | halfOU | iTunes

76 | 10

9.25 ГБ

В этой теме нет новых непрочитанных сообщений. Гадкий я 3 / Despicable Me 3 (2017) BDRip 1080p от Ash61 | 3D-Video | halfOU | iTunes

352 | 152

7.97 ГБ

В этой теме нет новых непрочитанных сообщений. Мумия / The Mummy (2017) BDRip 1080p от Ash61 | 3D-Video | halfOU | iTunes

313 | 84

12.08 ГБ

В этой теме нет новых непрочитанных сообщений. Чудо-женщина / Wonder Woman (2017) BDRip 1080p от Ash61 | 3D-Video | halfOU | iTunes

224 | 24

12.54 ГБ

В этой теме нет новых непрочитанных сообщений. Босс-молокосос / The Boss Baby (2017) BDRip 1080p от Ash61 | 3D-Video | halfOU | iTunes

66 | 9

6.1 ГБ

В этой теме нет новых непрочитанных сообщений. Трансформеры: Последний рыцарь / Transformers: The Last Knight (2017) BDRip 1080p от Ash61 | 3D-Video | halfOU | iTunes

237 | 109

19.13 ГБ

В этой теме нет новых непрочитанных сообщений. Тачки 3 / Cars 3 (2017) BDRemux 1080p от ExKinoRay | 3D-Video | iTunes

13 | 5

20.98 ГБ




Вы не можете начинать темы
Вы не можете отвечать на сообщения
Вы не можете редактировать свои сообщения
Вы не можете удалять свои сообщения
Вы не можете добавлять вложения

Перейти:  
Для Мосгорсуда, Роскомнадзора и рекламодателей: mosgorsud-torrent[собачка]yandex.ru
 Вход
ppkBB3cker v.2 © 2008-2014 @ PPK
[ Time : 0.038s | 18 Queries | GZIP : Off ]

cron