img image001 image001 image001 image001 image001 image001 image001 image001 image001 image001 image001 image001 image001 image001 image001

Planets Sun Sun Sun
Статистика раздачи
Автор: Nickolas3434 | Размер: 1.66 ГБ | Добавлен: 07 ноя 2017
Раздают: 14    Качают: 20
Скачать торрент
Скачать торрент
Описание торрента

СообщениеДобавлено: 07 ноя 2017 

Информация о фильме
Название: Симпсоны
Оригинальное название: The Simpsons
Год выхода: 2017
Жанр: Комедия, сатира
Режиссер: Марк Керклэнд, Стивен Дин Мур, Боб Андерсон
В ролях: Дэн Кастелланета, Джули Кавнер, Нэнси Картрайт, Ярдли Смит, Гарри Ширер, Хэнк Азария, Памела Хейден, Тресс МакНилл, Карл Видерготт, Мэгги Росвэлл и др.
О фильме:
«Симпсоны» - это пародия на всех и вся, и на типичный американский уклад жизни в целом. Главные герои этого мультсериала - показательная в своей типичности семья Симпсонов - обжора и лежебока, недалекий Гомер, его жена-умница домохозяйка Мардж, их дети сорванец Барт, одаренная умная девочка Лиза и совсем еще младенец Мэгги. Каждая серия не только богата юмором, но и высмеивает одну из волнующих современного человека тем, так что сериал с успехом пережил более 25 сезонов и продолжает успешное шествие по экранам. Отрезки, шутки, сами герои Симпсонов стали неотъемлемой частью современной поп-культуры, а их имена стали именами нарицательными.

Страна: США
Продолжительность: ~ 00:22:00 серия
Перевод: Любительский (многоголосый закадровый) | OMSKBIRD records
Файл
Кодек: XviD
Качество: HDTVRip
Видео: 720x400 (16:9), 23.976 fps, ~2000 kbps
Звук:
Аудио rus: AC-3, 48 KHz, 2 ch, 192 kbps | OMSKBIRD records
[
Реклама: присутствуют аудио вставки рекламы
Семпл
Релиз-группа: OmskBird
Перевод: Екатерина Полева
Роли озвучивали: Павел Ярощик, Станислав Черсков, Дмитрий Виноградов, Алена Соколова
Звукорежиссер: Павел Квентов
General
Complete name : G:FilmsThe.Simpsons.S29.400p.OmskBirdThe.Simpsons.S29E01.HDTVRip.OmskBird.avi
Format : AVI
Format/Info : Audio Video Interleave
File size : 361 MiB
Duration : 22mn 15s
Overall bit rate : 2 264 Kbps
Writing application : VirtualDubMod 1.5.10.3 (build 2550/release)
Writing library : VirtualDubMod build 2550/release
Video
ID : 0
Format : MPEG-4 Visual
Format profile : Advanced [email protected]
Format settings, BVOP : 1
Format settings, QPel : No
Format settings, GMC : No warppoints
Format settings, Matrix : Default (MPEG)
Codec ID : XVID
Codec ID/Hint : XviD
Duration : 22mn 15s
Bit rate : 2 063 Kbps
Width : 720 pixels
Height : 400 pixels
Display aspect ratio : 16:9
Frame rate : 23.976 (23976/1000) fps
Color space : YUV
Chroma subsampling : 4:2:0
Bit depth : 8 bits
Scan type : Progressive
Compression mode : Lossy
Bits/(Pixel*Frame) : 0.299
Stream size : 328 MiB (91%)
Writing library : XviD 73
Audio
ID : 1
Format : AC-3
Format/Info : Audio Coding 3
Mode extension : CM (complete main)
Format settings, Endianness : Big
Codec ID : 2000
Duration : 22mn 15s
Bit rate mode : Constant
Bit rate : 192 Kbps
Channel(s) : 2 channels
Channel positions : Front: L R
Sampling rate : 48.0 KHz
Frame rate : 31.250 fps (1536 spf)
Compression mode : Lossy
Stream size : 30.6 MiB (8%)
Alignment : Split accross interleaves
Interleave, duration : 42 ms (1.00 video frame)
Interleave, preload duration : 500 ms



Релиз от: OmckBird



   Похожие торренты   Торрент   Размер 
В этой теме нет новых непрочитанных сообщений. Симпсоны / The Simpsons [29x01-06 из 22] (2017) HDTVRip | OMSKBIRD

12 | 25

2.01 ГБ

В этой теме нет новых непрочитанных сообщений. Симпсоны / The Simpsons [29x01-07 из 22] (2017) HDTVRip | OMSKBIRD

10 | 19

2.3 ГБ

В этой теме нет новых непрочитанных сообщений. Симпсоны / The Simpsons [29x01 из 22] (2017) HDTVRip | OMSKBIRD

0 | 0

360.51 МБ

В этой теме нет новых непрочитанных сообщений. Симпсоны / The Simpsons [29x01 из 22] (2017) HDTVRip | OMSKBIRD

0 | 0

1 ГБ

В этой теме нет новых непрочитанных сообщений. Симпсоны / The Simpsons [29x01 из 22] (2017) HDTVRip | OMSKBIRD

0 | 0

1.36 ГБ

В этой теме нет новых непрочитанных сообщений. Симпсоны / The Simpsons [29x01-07 из 22] (2017) HDTVRip | OMSKBIRD

4 | 8

2.62 ГБ

В этой теме нет новых непрочитанных сообщений. Симпсоны / The Simpsons [29x01 из 22] (2017) HDTVRip | OMSKBIRD

0 | 0

737.63 МБ




Вы не можете начинать темы
Вы не можете отвечать на сообщения
Вы не можете редактировать свои сообщения
Вы не можете удалять свои сообщения
Вы не можете добавлять вложения

Перейти:  
Для Мосгорсуда, Роскомнадзора и рекламодателей: mosgorsud-torrent[собачка]yandex.ru
 Вход
ppkBB3cker v.2 © 2008-2014 @ PPK
[ Time : 0.040s | 18 Queries | GZIP : Off ]

cron