img image001 image001 image001 image001 image001 image001 image001 image001 image001 image001 image001 image001 image001 image001 image001

Planets Sun Sun Sun
Статистика раздачи
Автор: Nickolas3434 | Размер: 1.08 ГБ | Добавлен: 02 дек 2017
Раздают: 13    Качают: 0
Скачать торрент
Скачать торрент
Описание торрента

СообщениеДобавлено: 02 дек 2017 

Информация о фильме
Название: История морской пехоты России
Год выхода: 2017
Жанр: Документальный, флот, история, вооружение
Режиссер: Михаил Хлюстов
О фильме:
Морская пехота России - род войск, предназначенный для ведения боевых действий на приморских направлениях в интересах как флотов, так и приморских сухопутных группировок войск. Создана Петром I еще в начале ХVIII века. Морские пехотинцы и сегодня являются образцом современного воина.
Неоднократно упраздняемая «за ненадобностью» морская пехота всякий раз возрождалась вновь. За храбрость враг называл морских пехотинцев «черной смертью». Фильм рассказывает о 300-летней истории морской пехоты, о подготовке современных морпехов, их вооружении, различных способах высадки десанта.
1. Где мы - там победа!
История российской морской пехоты от Петра I до Великой Отечественной войны. От абордажных схваток и морских десантов XVIII века на гребных шлюпках до первого в мире десантного корабля, построенного в России. Морская пехота на протяжении столетий славилась своими героями. Её путь пролег от штурма Корфу, через две обороны Севастополя к подвигу морских пехотинцев во Второй мировой войне. Наследники славных традиций морской пехоты сегодня учатся воевать в воздухе, на берегу, в горах, на воде и под водой.
2. Черные береты
История морской пехоты от 1945-го года до наших дней. После войны этот род войск попал под сокращение. Однако военные конфликты 50-х годов показали, что без морской пехоты не обойтись. Через 8 лет она вновь заняла своё достойное место в Вооружённых силах СССР. В мирные годы именно морские пехотинцы участвовали в различных секретных миссиях по всему миру. Изменение стратегии ведения войны потребовало оснастить морскую пехоту специальными средствами высадки: от малых десантных кораблей и гусеничных амфибий до вертолетоносцев, экранопланов и судов на воздушной подушке. Термин «вежливые люди» по праву можно отнести к современным морским пехотинцам России.

Страна: Россия
Студия: ООО «Студия «Крылья»
Продолжительность: ~00:38:00 выпуск
Перевод: Не требуется
Файл
Кодек: XviD / AC3
Качество: SATRip
Видео: Xvid, 720x400, ~1800 Kbps
Звук: AC3, 2 ch, 192 Kbps
История.морской.пехоты.России.2017.XviD.SATRip.alf62История.морской.пехоты.России.(1.серия).Где.мы-там.победа.SATRip.alf62.avi
Формат : AVI
Формат/Информация : Audio Video Interleave
Размер файла : 549 Мбайт
Продолжительность : 38 м.
Общий поток : 2002 Кбит/сек
Программа кодирования : VirtualDubMod 1.5.10.3 | www.virtualdub-fr.org || (build 2550/release)
Библиотека кодирования : VirtualDubMod build 2550/release
Видео
Идентификатор : 0
Формат : MPEG-4 Visual
Профиль формата : Advanced [email protected]
Параметр BVOP формата : 2
Параметр QPel формата : Нет
Параметр GMC формата : Без точки перехода
Параметр матрицы формата : Default (MPEG)
Идентификатор кодека : XVID
Идентификатор кодека/Подсказка : XviD
Продолжительность : 38 м.
Битрейт : 1800 Кбит/сек
Ширина : 720 пикселей
Высота : 400 пикселей
Соотношение сторон : 16:9
Частота кадров : 25,000 кадров/сек
Цветовое пространство : YUV
Субдискретизация насыщенности : 4:2:0
Битовая глубина : 8 бит
Тип развёртки : Прогрессивная
Метод сжатия : С потерями
Бит/(Пиксели*Кадры) : 0.250
Размер потока : 494 Мбайт (90%)
Библиотека кодирования : XviD 73
Аудио
Идентификатор : 1
Формат : AC-3
Формат/Информация : Audio Coding 3
Расширение режима : CM (complete main)
Параметр Endianness формата : Big
Идентификатор кодека : 2000
Продолжительность : 38 м.
Вид битрейта : Постоянный
Битрейт : 192 Кбит/сек
Каналы : 2 канала
Расположение каналов : Front: L R
Частота : 48,0 КГц
Битовая глубина : 16 бит
Метод сжатия : С потерями
Размер потока : 52,7 Мбайт (10%)
Выравнивание : Разделение по промежуткам
Продолжительность промежутка : 40 мс. (1,00 видеокадр)
Время предзагрузки промежутка : 500 мс.



   Похожие торренты   Торрент   Размер 
В этой теме нет новых непрочитанных сообщений. National Geographic: Изнутри: База морской пехоты / National Geographic: Inside: Afghan marine base (2010) SATRip

3 | 3

551.17 МБ

В этой теме нет новых непрочитанных сообщений. Крейсер: Михаил Кутузов - История морской славы России (2010) DVDRip-AVC от Тorrent-Хzona

0 | 1

342.64 МБ

В этой теме нет новых непрочитанных сообщений. Битва за небо. История военной авиации России [01-08] (2017) SATRip

13 | 1

4.3 ГБ

В этой теме нет новых непрочитанных сообщений. Ганс Фердинанд Гельмольт - История человечества. Всемирная история. История России (1904) PDF

44 | 8

606.37 МБ

В этой теме нет новых непрочитанных сообщений. История России. Откровения / Russia's History Revealed [01-03 из 03] (2012) SATRip

120 | 5

1.52 ГБ

В этой теме нет новых непрочитанных сообщений. Чёрные береты - 300 лет морской пехоте России (2005) DVDRip от SilverСinema

9 | 3

698.66 МБ

В этой теме нет новых непрочитанных сообщений. Морская сила России (1-6 серии из 6) (Людмила Назарук, Борис Мамлин) [2006 - 2009, документальный, флот, история, война, SATRip]

4 | 0

3.16 ГБ




Вы не можете начинать темы
Вы не можете отвечать на сообщения
Вы не можете редактировать свои сообщения
Вы не можете удалять свои сообщения
Вы не можете добавлять вложения

Перейти:  
Для Мосгорсуда, Роскомнадзора и рекламодателей: mosgorsud-torrent[собачка]yandex.ru
 Вход
ppkBB3cker v.2 © 2008-2014 @ PPK
[ Time : 0.041s | 17 Queries | GZIP : Off ]

cron