img image001 image001 image001 image001 image001 image001 image001 image001 image001 image001 image001 image001 image001 image001 image001

Planets Sun Sun Sun
Статистика раздачи
Автор: Nickolas3434 | Размер: 740.35 МБ | Добавлен: 29 ноя 2017
Раздают: 0    Качают: 0
Скачать торрент
Скачать торрент
Описание торрента

СообщениеДобавлено: 29 ноя 2017 

Информация о фильме
Название: Мужской разговор с Юрием Мильчинским и Натальей Поклонской (Эфир от 25.11.17)
Год выхода: 2017
Жанр: Телепередача
Режиссер: Юрий Мильчинский
О фильме:
Телепроект "Мужской разговор" - программа о настоящих мужчинах. Уже несколько лет выходит на "Восьмом канале". Гости передачи - видные военачальники, спортсмены, артисты и политики.
Автор и ведущий программы Юрий Мильчинский - эксперт по боевым единоборствам, криминалист.
Депутат Государственной Думы Наталья Поклонская стала первой женщиной-участницей программы. Самая молодая женщина-генерал, символ «Русской весны», входит в десятку самых привлекательных женщин России.
Наталья подробно ответила на все вопросы, не избегая острых: «С чем пришлось столкнуться этой хрупкой женщине? Кто ее друзья, и есть ли у нее враги? Как она справляется с ударами судьбы?»
Официальный сайт
Страна: Россия, 8 ТВ Восьмой канал
Продолжительность: 00:20:00
Перевод: Не требуется
Файл
Кодек: h.264
Качество: WEBRip 1080p
Видео: AVC MPEG-4, 1920x1080 (16:9), ~5000 Kbps, 25 fps
Звук: AAC, 2 ch, 160 Kbps
General
Unique ID : 172319652169986224465207187067659522576 (0x81A38ECCC55DDEA8853731446C8A9210)
Complete name : D:FilmМужской разговор с Юрием Мильчинским и Натальей Поклонской.mkv
Format : Matroska
Format version : Version 4 / Version 2
File size : 740 MiB
Duration : 20 min 0 s
Overall bit rate : 5 175 kb/s
Encoded date : UTC 2017-11-29 07:10:02
Writing application : mkvmerge v18.0.0 ('Apricity') 64-bit
Writing library : libebml v1.3.5 + libmatroska v1.4.8
Cover : Yes
Attachments : cover.png
Video
ID : 1
Format : AVC
Format/Info : Advanced Video Codec
Format profile : [email protected]
Format settings : CABAC / 1 Ref Frames
Format settings, CABAC : Yes
Format settings, RefFrames : 1 frame
Format settings, GOP : M=1, N=50
Codec ID : V_MPEG4/ISO/AVC
Duration : 20 min 0 s
Bit rate : 5 007 kb/s
Width : 1 920 pixels
Height : 1 080 pixels
Display aspect ratio : 16:9
Frame rate mode : Constant
Frame rate : 25.000 FPS
Color space : YUV
Chroma subsampling : 4:2:0
Bit depth : 8 bits
Scan type : Progressive
Bits/(Pixel*Frame) : 0.097
Stream size : 716 MiB (97%)
Language : Russian
Default : Yes
Forced : No
Audio
ID : 2
Format : AAC
Format/Info : Advanced Audio Codec
Format profile : LC
Codec ID : A_AAC-2
Duration : 20 min 0 s
Bit rate : 160 kb/s
Channel(s) : 2 channels
Channel positions : Front: L R
Sampling rate : 48.0 kHz
Frame rate : 46.875 FPS (1024 SPF)
Compression mode : Lossy
Delay relative to video : -43 ms
Stream size : 22.9 MiB (3%)
Language : Russian
Default : Yes
Forced : No




   Похожие торренты   Торрент   Размер 
В этой теме нет новых непрочитанных сообщений. Мужской разговор (1968) DVDRip-AVC

51 | 16

1.77 ГБ

В этой теме нет новых непрочитанных сообщений. Честное слово с Юрием Николаевым [01-06] (2017) WEBRip 720p от Files-х

1 | 0

6.11 ГБ

В этой теме нет новых непрочитанных сообщений. Честное слово с Юрием Николаевым [01-06] (2017) WEBRip 720p от Files-х

0 | 15

5.13 ГБ

В этой теме нет новых непрочитанных сообщений. Честное слово с Юрием Николаевым [01-04] (2017) WEBRip 720p от Files-х

3 | 3

3.32 ГБ

В этой теме нет новых непрочитанных сообщений. Честное слово с Юрием Николаевым [01-06] (2017) WEBRip 720p от Files-х

0 | 7

7.1 ГБ

В этой теме нет новых непрочитанных сообщений. Честное слово с Юрием Николаевым [01-06] (2017) WEBRip 720p от Files-х

2 | 12

8.21 ГБ

В этой теме нет новых непрочитанных сообщений. Разговор Начистоту / Прямой разговор / Straight Talk (1992) BDRip-AVC от MediaClub | P2

13 | 2

2.08 ГБ




Вы не можете начинать темы
Вы не можете отвечать на сообщения
Вы не можете редактировать свои сообщения
Вы не можете удалять свои сообщения
Вы не можете добавлять вложения

Перейти:  
Для Мосгорсуда, Роскомнадзора и рекламодателей: mosgorsud-torrent[собачка]yandex.ru
 Вход
ppkBB3cker v.2 © 2008-2014 @ PPK
[ Time : 0.045s | 17 Queries | GZIP : Off ]

cron