img image001 image001 image001 image001 image001 image001 image001 image001 image001 image001 image001 image001 image001 image001 image001

Planets Sun Sun Sun
Статистика раздачи
Автор: Nickolas3434 | Размер: 477.09 МБ | Добавлен: 27 ноя 2017
Раздают: 3    Качают: 0
Скачать торрент
Скачать торрент
Описание торрента

СообщениеДобавлено: 27 ноя 2017 

Информация о фильме
Название: «Что произошло?» (Эфир от 01.11.17)
Год выхода: 2017
Жанр: Телепередача
В ролях: Светлана Попова, Владимир Кольцов, Валентин Катасонов, Евгений Федоров, Евгений Анисимов
О фильме:
«Что произошло?» - новостная и информационно-аналитическая программа. Выходит несколько раз в месяц на федеральном патриотическом телеканале «КРИК-ТВ».
Обзор главных новостей, анализ резонансных происшествий и общественных явлений в России, странах бывшего СССР и в мире. На телеканале реализована модель общественного телевидения России.
Страна: Россия, КРИК-ТВ
Продолжительность: 00:18:12
Перевод: Не требуется
Файл
Кодек: h.264
Качество: WEBRip 1080p
Видео: AVC MPEG-4, 1920x1080 (16:9), ~3500 Kbps
Звук: AAC, 2 ch, 128 Kbps
General
Unique ID : 254252005556771769940151776346880198667 (0xBF4727B41FD644D4865CDC13EDE9C80B)
Complete name : D:FilmЧто произошло Госпереворот начнется в Екатеринбурге.mkv
Format : Matroska
Format version : Version 4 / Version 2
File size : 477 MiB
Duration : 18 min 12 s
Overall bit rate : 3 665 kb/s
Encoded date : UTC 2017-11-26 10:06:10
Writing application : mkvmerge v18.0.0 ('Apricity') 64-bit
Writing library : libebml v1.3.5 + libmatroska v1.4.8
Cover : Yes
Attachments : cover.png
Video
ID : 2
Format : AVC
Format/Info : Advanced Video Codec
Format profile : [email protected]
Format settings : CABAC / 2 Ref Frames
Format settings, CABAC : Yes
Format settings, RefFrames : 2 frames
Format settings, GOP : M=2, N=13
Codec ID : V_MPEG4/ISO/AVC
Duration : 18 min 12 s
Bit rate : 3 529 kb/s
Width : 1 920 pixels
Height : 1 080 pixels
Display aspect ratio : 16:9
Frame rate mode : Constant
Frame rate : 25.000 FPS
Color space : YUV
Chroma subsampling : 4:2:0
Bit depth : 8 bits
Scan type : Progressive
Bits/(Pixel*Frame) : 0.068
Stream size : 459 MiB (96%)
Language : Russian
Default : Yes
Forced : No
Audio
ID : 1
Format : AAC
Format/Info : Advanced Audio Codec
Format profile : LC
Codec ID : A_AAC-2
Duration : 18 min 12 s
Bit rate : 128 kb/s
Channel(s) : 2 channels
Channel positions : Front: L R
Sampling rate : 44.1 kHz
Frame rate : 43.066 FPS (1024 SPF)
Compression mode : Lossy
Stream size : 16.7 MiB (3%)
Language : Russian
Default : Yes
Forced : No




   Похожие торренты   Торрент   Размер 
В этой теме нет новых непрочитанных сообщений. Дядя Вова, мы с тобой! [3 клипа] (2017) WEBRip 720p, WEBRip 1080p

0 | 0

147.02 МБ

В этой теме нет новых непрочитанных сообщений. Автоспорт. 4х4. Сборник видео офф роуда и трофи рейдов. Отчет за Январь - Октябрь (2017) WEBRip 720p, WEBRip 1080p

0 | 0

339.36 ГБ

В этой теме нет новых непрочитанных сообщений. Мгла / The Mist [01x01-03 из 10] (2017) WEB-DLRip 1080p, WEBRip 1080p | IdeaFilm

102 | 36

5.03 ГБ

В этой теме нет новых непрочитанных сообщений. Мгла / The Mist [01x01-04 из 10] (2017) WEB-DL 1080p, WEBRip 1080p | Alternative Production4

16 | 8

5.25 ГБ

В этой теме нет новых непрочитанных сообщений. Мгла / The Mist [S01] (2017) WEB-DL 1080p, WEBRip 1080p | Alternative Production

8 | 8

18.35 ГБ

В этой теме нет новых непрочитанных сообщений. Секрет на миллион - Валерия. Часть 1 [02.09.2017] (2017) WEBRip 1080p

2 | 2

4.08 ГБ

В этой теме нет новых непрочитанных сообщений. Звезда на Звезде. Маргарита Симоньян (01.11.2017) (2017) WEBRip 1080p

0 | 0

698.14 МБ




Вы не можете начинать темы
Вы не можете отвечать на сообщения
Вы не можете редактировать свои сообщения
Вы не можете удалять свои сообщения
Вы не можете добавлять вложения

Перейти:  
Для Мосгорсуда, Роскомнадзора и рекламодателей: mosgorsud-torrent[собачка]yandex.ru
 Вход
ppkBB3cker v.2 © 2008-2014 @ PPK
[ Time : 0.031s | 18 Queries | GZIP : Off ]

cron