img image001 image001 image001 image001 image001 image001 image001 image001 image001 image001 image001 image001 image001 image001 image001

Planets Sun Sun Sun
Статистика раздачи
Автор: Nickolas3434 | Размер: 1.59 ГБ | Добавлен: 03 дек 2017
Раздают: 230    Качают: 12
Скачать торрент
Скачать торрент
Описание торрента

СообщениеДобавлено: 03 дек 2017 

Жизнь впереди
«Цена успеха»


Год выпуска: 2017
Страна: Россия
Производство: «Централ Партнершип», Кинокомпания «Kargo»
Жанр: Комедия
Режиссёр: Карен Оганесян
В ролях: Светлана Ходченкова, Александр Паль, Павел Прилучный, Артур Смольянинов, Денис Шведов, Егор Корешков, Ольга Медынич, Максим Виторган, Валерия Кожевникова, Юлия Александрова
Перевод: Не требуется
Субтитры: Нет
Реклама: Отсутствует
Описание: 11-й «Б» впервые собирается вместе через 15 лет после выпуска, и эта встреча для одноклассников — удивительная возможность на короткое время вернуться в прошлое. Старые секреты и личные счеты, обиды и первая любовь оборачиваются водоворотом страстей.

Качество: WEB-DLRip-AVC
Продолжительность: 01:25:05
Формат: MKV
Видео кодек: MPEG-4 AVC
Аудио кодек: AC3
Видео: 1024x576 (16:9), 25.000 fps, x264 ~2286 kbps avg, 0.161 bit/pixel
Аудио: 48 kHz, AC3 Dolby Digital, 3/2 (L,C,R,l,r) + LFE ch, ~384.00 kbps avg | RUS (iTunes)
Дата премьеры (мир): 6 октября 2017
Дата премьеры (РФ): 5 октября 2017, «Централ Партнершип»

Релиз от: Rip by:
Общее
Уникальный идентификатор : 249529587331862568990424510633788289361 (0xBBB9A68245CA4B5E87847932380BB151)
Полное имя : E:OlLanDGroupZhizn.vperedi.2017.WEB-DLRip(AVC).OlLanDGroup.mkv
Формат : Matroska
Версия формата : Version 2
Размер файла : 1,59 Гбайт
Продолжительность : 1 ч. 25 м.
Общий поток : 2671 Кбит/сек
Название фильма : Zhizn.vperedi.2017 #TorpedoUK#
Дата кодирования : UTC 2017-12-02 13:24:13
Программа кодирования : mkvmerge v7.8.0 ('River Man') 32bit built on Apr 3 2015 12:11:22
Библиотека кодирования : libebml v1.3.1 + libmatroska v1.4.2
Видео
Идентификатор : 1
Формат : AVC
Формат/Информация : Advanced Video Codec
Профиль формата : [email protected]
Параметр CABAC формата : Да
Параметр ReFrames формата : 10 кадров
Идентификатор кодека : V_MPEG4/ISO/AVC
Продолжительность : 1 ч. 25 м.
Битрейт : 2286 Кбит/сек
Ширина : 1024 пикселя
Высота : 576 пикселей
Соотношение сторон : 16:9
Режим частоты кадров : Постоянный
Частота кадров : 24,000 кадра/сек
Цветовое пространство : YUV
Субдискретизация насыщенности : 4:2:0
Битовая глубина : 8 бит
Тип развёртки : Прогрессивная
Бит/(Пиксели*Кадры) : 0.161
Размер потока : 1,33 Гбайт (84%)
Библиотека кодирования : x264 core 146 r2538 121396c
Настройки программы : cabac=1 / ref=10 / deblock=1:-3:-3 / analyse=0x3:0x133 / me=umh / subme=10 / psy=1 / psy_rd=0.97:0.05 / mixed_ref=1 / me_range=48 / chroma_me=1 / trellis=2 / 8x8dct=1 / cqm=0 / deadzone=21,11 / fast_pskip=1 / chroma_qp_offset=-3 / threads=6 / lookahead_threads=1 / sliced_threads=0 / nr=0 / decimate=1 / interlaced=0 / bluray_compat=0 / constrained_intra=0 / bframes=10 / b_pyramid=2 / b_adapt=2 / b_bias=0 / direct=3 / weightb=1 / open_gop=0 / weightp=2 / keyint=240 / keyint_min=24 / scenecut=40 / intra_refresh=0 / rc_lookahead=40 / rc=2pass / mbtree=0 / bitrate=2286 / ratetol=1.0 / qcomp=0.60 / qpmin=0 / qpmax=69 / qpstep=4 / cplxblur=20.0 / qblur=0.5 / vbv_maxrate=50000 / vbv_bufsize=62500 / nal_hrd=none / filler=0 / ip_ratio=1.40 / pb_ratio=1.30 / aq=1:1.00
Default : Да
Forced : Нет
Аудио
Идентификатор : 2
Формат : AC-3
Формат/Информация : Audio Coding 3
Расширение режима : CM (complete main)
Параметр Endianness формата : Big
Идентификатор кодека : A_AC3
Продолжительность : 1 ч. 25 м.
Вид битрейта : Постоянный
Битрейт : 384 Кбит/сек
Каналы : 6 каналов
Расположение каналов : Front: L C R, Side: L R, LFE
Частота : 48,0 КГц
Частота кадров : 31,250 кадров/сек (1536 spf)
Битовая глубина : 16 бит
Метод сжатия : С потерями
Размер потока : 234 Мбайт (14%)
Default : Да
Forced : Нет
Меню
00:00:00.000 : en:Глава 1
00:05:48.375 : en:Глава 2
00:13:01.208 : en:Глава 3
00:19:47.874 : en:Глава 4
00:28:41.915 : en:Глава 5
00:36:57.456 : en:Глава 6
00:42:39.081 : en:Глава 7
00:49:04.789 : en:Глава 8
00:53:59.455 : en:Глава 9
01:01:06.455 : en:Глава 10
01:07:50.330 : en:Глава 11
01:14:56.205 : en:Глава 12







   Похожие торренты   Торрент   Размер 
В этой теме нет новых непрочитанных сообщений. Жизнь впереди (2017) WEB-DLRip-AVC от ExKinoRay | iTunes

235 | 9

746.4 МБ

В этой теме нет новых непрочитанных сообщений. Жизнь впереди (2017) WEB-DLRip от Generalfilm | КПК | iTunes

57 | 2

323.56 МБ

В этой теме нет новых непрочитанных сообщений. Жизнь впереди (2017) WEB-DLRip от Scarabey | iTunes

704 | 23

1.44 ГБ

В этой теме нет новых непрочитанных сообщений. Жизнь впереди (2017) WEB-DLRip от MegaPeer | iTunes

10264 | 474

1.46 ГБ

В этой теме нет новых непрочитанных сообщений. Жизнь впереди (2017) WEB-DLRip от GeneralFilm | iTunes

203 | 7

744.04 МБ

В этой теме нет новых непрочитанных сообщений. Жизнь впереди (2017) WEB-DL 1080p | iTunes

1446 | 44

3.34 ГБ

В этой теме нет новых непрочитанных сообщений. 24 часа на жизнь / 24 Hours to Live (2017) WEB-DLRip-AVC от OlLanDGroup | iTunes

436 | 7

1.73 ГБ




Вы не можете начинать темы
Вы не можете отвечать на сообщения
Вы не можете редактировать свои сообщения
Вы не можете удалять свои сообщения
Вы не можете добавлять вложения

Перейти:  
Для Мосгорсуда, Роскомнадзора и рекламодателей: mosgorsud-torrent[собачка]yandex.ru
 Вход
ppkBB3cker v.2 © 2008-2014 @ PPK
[ Time : 0.036s | 18 Queries | GZIP : Off ]

cron