img image001 image001 image001 image001 image001 image001 image001 image001 image001 image001 image001 image001 image001 image001 image001

Planets Sun Sun Sun
Статистика раздачи
Автор: Nickolas3434 | Размер: 2.56 ГБ | Добавлен: 02 дек 2017
Раздают: 12    Качают: 1
Скачать торрент
Скачать торрент
Описание торрента

СообщениеДобавлено: 02 дек 2017 

Жить

Страна: Россия
Жанр: драма
Год выпуска: 2011
Продолжительность: 01:59:01
Перевод: Не требуется
Субтитры: Нет
Режиссер: Василий Сигарев
В ролях: Яна Троянова, Алексей Филимонов, Ольга Лапшина, Евгений Сытый,
Анна Уколова, Марина Гаврилова, Саша Гаврилова, Дмитрий Куличков, Яна Сексте, Ирма Арендт
Описание: Человек умеет чувствовать, страдать, любить. Он умеет принять свою судьбу, даже когда та отнимает самое ценное — близких.
Отнимает вместе со смыслом жизни и с желанием жить. Отнимает вместе со всем миром.
Но герои фильма не готовы мириться со своими потерями.
Они бросают судьбе вызов, объявляют ей войну и доходят в ней до человеческого предела. И идут дальше, по-своему побеждая…


Кодек: х264
Качество: DVDRip-AVC
Видео: MPEG-4 AVC, [email protected], 25 fps, 2500 Кбит/с
Аудио 1: AC3, 3,2 ch, 384 Кбит/с
Аудио 2: AC3, 2 ch, 192 Кбит/с

x264 [info]: frame I:811 Avg QP:15.29 size: 74229
x264 [info]: frame P:33493 Avg QP:18.75 size: 30374
x264 [info]: frame B:144160 Avg QP:20.23 size: 8002
Общее
Уникальный идентификатор : 254673312537754503844548529458434971041 (0xBF984BBDD3A06EF8930A3D0602EA95A1)
Полное имя : E:Мои рипыЖить 2012_DVD-AVC_KORSAR.mkv
Формат : Matroska
Версия формата : Version 2
Размер файла : 2,56 Гбайт
Продолжительность : 1 ч. 58 м.
Общий поток : 3078 Кбит/сек
Дата кодирования : UTC 2017-11-30 13:22:43
Программа кодирования : mkvmerge v5.8.0 ('No Sleep / Pillow') built on Sep 2 2012 15:37:04
Библиотека кодирования : libebml v1.2.3 + libmatroska v1.3.0
Видео
Идентификатор : 1
Формат : AVC
Формат/Информация : Advanced Video Codec
Профиль формата : [email protected]
Настройки формата : CABAC / 16 Ref Frames
Параметр CABAC формата : Да
Параметр RefFrames формата : 16 кадров
Идентификатор кодека : V_MPEG4/ISO/AVC
Продолжительность : 1 ч. 58 м.
Битрейт : 2500 Кбит/сек
Ширина : 720 пикселей
Высота : 548 пикселей
Соотношение сторон : 1,85:1
Режим частоты кадров : Постоянный
Частота кадров : 25,000 кадров/сек
Цветовое пространство : YUV
Субдискретизация насыщенности : 4:2:0
Битовая глубина : 8 бит
Тип развёртки : Прогрессивная
Бит/(Пиксели*Кадры) : 0.253
Размер потока : 2,03 Гбайт (79%)
Библиотека кодирования : x264 core 152 r2851kMod ba24899
Настройки программы : cabac=1 / ref=16 / deblock=1:-2:-2 / analyse=0x3:0x133 / me=umh / subme=11 / psy=1 / fade_compensate=0.00 / psy_rd=1.05:0.10 / mixed_ref=1 / me_range=48 / chroma_me=1 / trellis=2 / 8x8dct=1 / cqm=0 / deadzone=21,11 / fast_pskip=0 / chroma_qp_offset=-3 / threads=12 / lookahead_threads=3 / sliced_threads=0 / nr=0 / decimate=0 / interlaced=0 / bluray_compat=0 / constrained_intra=0 / bframes=10 / b_pyramid=2 / b_adapt=2 / b_bias=0 / direct=3 / weightb=1 / open_gop=0 / weightp=2 / keyint=250 / keyint_min=25 / scenecut=40 / intra_refresh=0 / rc_lookahead=40 / rc=2pass / mbtree=0 / bitrate=2500 / ratetol=1.0 / qcomp=0.60 / qpmin=0 / qpmax=39 / qpstep=4 / cplxblur=20.0 / qblur=0.5 / vbv_maxrate=50000 / vbv_bufsize=62500 / nal_hrd=none / filler=0 / ip_ratio=1.40 / pb_ratio=1.30 / aq=1:1.00
Язык : English
Default : Да
Forced : Нет
Цветовой диапазон : Limited
Основные цвета : BT.601 PAL
Характеристики трансфера : BT.470 System B, BT.470 System G
Коэффициенты матрицы : BT.470 System B, BT.470 System G
Аудио #1
Идентификатор : 2
Формат : AC-3
Формат/Информация : Audio Coding 3
Параметр Endianness формата : Big
Идентификатор кодека : A_AC3
Продолжительность : 1 ч. 58 м.
Вид битрейта : Постоянный
Битрейт : 384 Кбит/сек
Каналы : 6 каналов
Расположение каналов : Front: L C R, Side: L R, LFE
Частота : 48,0 КГц
Частота кадров : 31,250 кадров/сек (1536 SPF)
Битовая глубина : 16 бит
Метод сжатия : С потерями
Размер потока : 327 Мбайт (12%)
Язык : Russian
Default : Да
Forced : Нет
Аудио #2
Идентификатор : 3
Формат : AC-3
Формат/Информация : Audio Coding 3
Параметр Endianness формата : Big
Идентификатор кодека : A_AC3
Продолжительность : 1 ч. 58 м.
Вид битрейта : Постоянный
Битрейт : 192 Кбит/сек
Каналы : 2 канала
Расположение каналов : Front: L R
Частота : 48,0 КГц
Частота кадров : 31,250 кадров/сек (1536 SPF)
Битовая глубина : 16 бит
Метод сжатия : С потерями
Размер потока : 163 Мбайт (6%)
Язык : Russian
Default : Нет
Forced : Нет




   Похожие торренты   Торрент   Размер 
В этой теме нет новых непрочитанных сообщений. Кипелов - Жить вопреки (Бонус-DVD) (2011) DVDRip

3 | 2

569.09 МБ

В этой теме нет новых непрочитанных сообщений. Жить, чтобы жить / Vivre pour vivre (1967) DVDRip | P, Sub

90 | 31

2.06 ГБ

В этой теме нет новых непрочитанных сообщений. Жить, чтобы жить / Vivre pour vivre (1967) DVDRip-AVC

8 | 2

1.9 ГБ

В этой теме нет новых непрочитанных сообщений. А давайте жить все вместе? / Et si on vivait tous ensemble? (2011) DVDRip от Scarabey | L

37 | 5

1.45 ГБ

В этой теме нет новых непрочитанных сообщений. А давайте жить все вместе? / Et si on vivait tous ensemble? (2011) DVDRip от Scarabey | L1

24 | 2

745.66 МБ

В этой теме нет новых непрочитанных сообщений. Проект #ЖИТЬ - #ЖИТЬ [клип] (2016) WEBRip | 7turza

9 | 0

99.59 МБ

В этой теме нет новых непрочитанных сообщений. Жить (2011) HDTVRip-AVC от Files-x

76 | 4

1.37 ГБ




Вы не можете начинать темы
Вы не можете отвечать на сообщения
Вы не можете редактировать свои сообщения
Вы не можете удалять свои сообщения
Вы не можете добавлять вложения

Перейти:  
Для Мосгорсуда, Роскомнадзора и рекламодателей: mosgorsud-torrent[собачка]yandex.ru
 Вход
ppkBB3cker v.2 © 2008-2014 @ PPK
[ Time : 0.041s | 19 Queries | GZIP : Off ]

cron