img image001 image001 image001 image001 image001 image001 image001 image001 image001 image001 image001 image001 image001 image001 image001

Planets Sun Sun Sun
Статистика раздачи
Автор: Nickolas3434 | Размер: 8.55 ГБ | Добавлен: 30 ноя 2017
Раздают: 26    Качают: 2
Скачать торрент
Скачать торрент
Описание торрента

СообщениеДобавлено: 30 ноя 2017 

Информация о фильме
Название: Невероятные приключения итальянцев в России
Год выхода: 1973
Жанр: Комедия, приключения
Режиссер: Эльдар Рязанов
В ролях: Андрей Миронов, Нинетто Даволи, Антония Сантилли, Алигьеро Носкезе, Тано Чимароза, Джиджи Баллиста, Евгений Евстигнеев, Ольга Аросева, Лариса Виккел, Александр Лукьянов, Борис Рунге, Валериан Виноградов, Элла Некрасова, Юрий Шепелев, Антонина Максимова, Вадим Грачёв, Сергей Юртайкин, Зоя Исаева, Олег Белов, Юрий Михайлов, Александр Степанов
О фильме:
В одной из римских больниц скончалась русская эмигрантка. Старая дама, некогда эмигрировавшая из России, поведала своей внучке Ольге, что все ее огромное состояние спрятано в Ленинграде «под львом». Это обстоятельство явилось причиной срочного отлета в Ленинград всех тех, кто случайно или специально был посвящен в эту тайну. В СССР прибыли солидный врач, итальянский мафиози, два санитара, просто горожанин и внучка Ольга. А в Москве к ним присоединился еще и гид, который усложнил и так непростые поиски сокровищ…

Страна: СССР
Продолжительность: 01:38:08
Перевод: не требуется
Файл
Кодек: x264
Качество: HDDVDRip 1080p - Custom
Видео: MPEG-4 AVC, ~12000 Кбит/с, 1440x1048
Звук: AC3, 6 ch, 448 Кбит/с
General
Unique ID : 224187565359819166384290476494147928844 (0xA8A8F45BFC132571A157EC8F3609C30C)
Complete name : F:FILMSНевероятные приключения итальянцев в России.1973.1080.mkv
Format : Matroska
Format version : Version 4 / Version 2
File size : 8.55 GiB
Duration : 1 h 38 min
Overall bit rate : 12.5 Mb/s
Encoded date : UTC 2017-09-26 16:34:38
Writing application : mkvmerge v13.0.0 ('The Juggler') 64bit
Writing library : libebml v1.3.4 + libmatroska v1.4.5
Video
ID : 1
Format : AVC
Format/Info : Advanced Video Codec
Format profile : [email protected]
Format settings : CABAC / 4 Ref Frames
Format settings, CABAC : Yes
Format settings, ReFrames : 4 frames
Codec ID : V_MPEG4/ISO/AVC
Duration : 1 h 38 min
Bit rate : 12.0 Mb/s
Width : 1 440 pixels
Height : 1 048 pixels
Display aspect ratio : 1.376
Frame rate mode : Constant
Frame rate : 25.000 FPS
Color space : YUV
Chroma subsampling : 4:2:0
Bit depth : 8 bits
Scan type : Progressive
Bits/(Pixel*Frame) : 0.318
Stream size : 8.24 GiB (96%)
Writing library : x264 core 148 r2708 86b7198
Encoding settings : cabac=1 / ref=3 / deblock=1:0:0 / analyse=0x1:0x111 / me=hex / subme=7 / psy=1 / psy_rd=1.00:0.00 / mixed_ref=1 / me_range=16 / chroma_me=1 / trellis=1 / 8x8dct=0 / cqm=0 / deadzone=21,11 / fast_pskip=1 / chroma_qp_offset=-2 / threads=12 / lookahead_threads=2 / sliced_threads=0 / nr=0 / decimate=1 / interlaced=0 / bluray_compat=0 / constrained_intra=0 / bframes=3 / b_pyramid=2 / b_adapt=1 / b_bias=0 / direct=1 / weightb=1 / open_gop=0 / weightp=2 / keyint=250 / keyint_min=25 / scenecut=40 / intra_refresh=0 / rc_lookahead=40 / rc=abr / mbtree=1 / bitrate=12000 / ratetol=1.0 / qcomp=0.60 / qpmin=0 / qpmax=69 / qpstep=4 / vbv_maxrate=50000 / vbv_bufsize=62500 / nal_hrd=none / filler=0 / ip_ratio=1.40 / aq=1:1.00
Language : English
Default : Yes
Forced : No
Color range : Limited
Color primaries : BT.709
Transfer characteristics : BT.709
Matrix coefficients : BT.709
Audio
ID : 2
Format : AC-3
Format/Info : Audio Coding 3
Codec ID : A_AC3
Duration : 1 h 38 min
Bit rate mode : Constant
Bit rate : 448 kb/s
Channel(s) : 6 channels
Channel positions : Front: L C R, Side: L R, LFE
Sampling rate : 48.0 kHz
Frame rate : 31.250 FPS (1536 SPF)
Bit depth : 16 bits
Compression mode : Lossy
Stream size : 314 MiB (4%)
Language : Russian
Service kind : Complete Main
Default : Yes
Forced : No



   Похожие торренты   Торрент   Размер 
В этой теме нет новых непрочитанных сообщений. Невероятные приключения итальянцев в России (1973) HDDVDRip-AVC от ExKinoRay

25 | 0

746.08 МБ

В этой теме нет новых непрочитанных сообщений. Невероятные приключения итальянцев в России (1973) HDDVDRip 720p от ExKinoRay

401 | 54

3.86 ГБ

В этой теме нет новых непрочитанных сообщений. Невероятные приключения итальянцев в России (1973) DVDRip от GeneralFilm

576 | 36

1.75 ГБ

В этой теме нет новых непрочитанных сообщений. Невероятные приключения итальянцев в России (1973) DVDRip от Youtracker

70 | 13

1.45 ГБ

В этой теме нет новых непрочитанных сообщений. Невероятные приключения итальянцев в России (1973) DVDRip-AVC от Youtracker

687 | 18

1.46 ГБ

В этой теме нет новых непрочитанных сообщений. Невероятные приключения итальянцев в России (1973) DVDRip от Youtracker

138 | 20

743.95 МБ

В этой теме нет новых непрочитанных сообщений. Невероятные приключения итальянцев в России (1973) DVDRip-AVC от Torrent-Xzona

44 | 10

1.51 ГБ




Вы не можете начинать темы
Вы не можете отвечать на сообщения
Вы не можете редактировать свои сообщения
Вы не можете удалять свои сообщения
Вы не можете добавлять вложения

Перейти:  
Для Мосгорсуда, Роскомнадзора и рекламодателей: mosgorsud-torrent[собачка]yandex.ru
 Вход
ppkBB3cker v.2 © 2008-2014 @ PPK
[ Time : 0.054s | 18 Queries | GZIP : Off ]

cron