img image001 image001 image001 image001 image001 image001 image001 image001 image001 image001 image001 image001 image001 image001 image001

Planets Sun Sun Sun
Статистика раздачи
Автор: Nickolas3434 | Размер: 1.09 ГБ | Добавлен: 29 ноя 2017
Раздают: 11    Качают: 0
Скачать торрент
Скачать торрент
Описание торрента

СообщениеДобавлено: 29 ноя 2017 


Мы "В КОНТАКТЕ"


Страна: СССР
Производство: К/ст. им. Довженко
Жанр: драма
Год выпуска: 1959
Продолжительность: 01:26:11
Перевод: Не требуется
Cубтитры: нет
Оригинальная аудиодорожка: русский
Режиссер: Юрий Лысенко
В ролях:
Юрий Максимов, Ольга Лысенко, Лариса Шепитько, Николай Воронин, Иван Рыжов, Дмитрий Капка, Андрей Иванченко, Дмитрий Милютенко, Антон Король, Олег Жаков, Артем Тарский, Фёдор Ищенко, Дмитрий Костенко, А. Черненко (II), Коля Батуревич, Наталья Гицерот, Лев Перфилов, Николай Талюра, Мария Капнист, Александр Гумбург, Алексей Максимов, Н. Назарен, Василий Козенко...
Об актёрах подробней
Описание:
По одноименному роману Олеся Гончара.
Юг Украины, "степная империя" Фальцфейнов. По-разному складываются судьбы двух подруг Вусти (Ольга Лысенко) и Ганны (Лариса Шепитько). Вустя полюбила революционера Леонида Бронникова и сама решила идти по его пути. Мечта Ганны - стать богатой. Она влюбляется в сына миллионеров Фальцфейнов. Но не удаётся горничной стать госпожой: помещица Софья Фальцфейн выгоняет Ганну из имения. Тяжёлые условия труда на работах в панских экономиях рождают солидарность и крепкую дружбу между русскими и украинцами. Они восстают против своей угнетательницы помещицы Фальцфейн.





Источник: DVD5 R5
Качество видео: DVDRip
Формат видео: AVI
Видео: 720х544 (4:3), 25 fps, XviD ~ 1609 kbps avg, 0.164 bit/pixel
Аудио: 48 kHz, Dolby Digital AC3 2.0, 192 kbps
Раздача от:
Общее
Полное имя : Tavriya.1959.DVDRip_[New-team]_by_AVP_Studio.avi
Формат : AVI
Формат/Информация : Audio Video Interleave
Размер файла : 1,09 Гбайт
Продолжительность : 1 ч. 26 м.
Общий поток : 1811 Кбит/сек
Программа кодирования : VirtualDubMod 1.5.10.3 | www.virtualdub-fr.org || (build 2550/release)
Библиотека кодирования : VirtualDubMod build 2550/release
Видео
Идентификатор : 0
Формат : MPEG-4 Visual
Профиль формата : Advanced [email protected]
Настройки формата : BVOP1 / Custom Matrix
Параметр BVOP формата : 1
Параметр QPel формата : Нет
Параметр GMC формата : Без точки перехода
Параметр матрицы формата : Выборочная
Идентификатор кодека : XVID
Идентификатор кодека/Подсказка : XviD
Продолжительность : 1 ч. 26 м.
Битрейт : 1609 Кбит/сек
Ширина : 720 пикселей
Высота : 544 пикселя
Соотношение сторон : 4:3
Частота кадров : 25,000 кадров/сек
Цветовое пространство : YUV
Субдискретизация насыщенности : 4:2:0
Битовая глубина : 8 бит
Тип развёртки : Прогрессивная
Метод сжатия : С потерями
Бит/(Пиксели*Кадры) : 0.164
Размер потока : 992 Мбайт (89%)
Библиотека кодирования : XviD 73
Аудио
Идентификатор : 1
Формат : AC-3
Формат/Информация : Audio Coding 3
Идентификатор кодека : 2000
Продолжительность : 1 ч. 26 м.
Вид битрейта : Постоянный
Битрейт : 192 Кбит/сек
Каналы : 2 канала
Расположение каналов : Front: L R
Частота : 48,0 КГц
Частота кадров : 31,250 кадров/сек (1536 SPF)
Битовая глубина : 16 бит
Метод сжатия : С потерями
Размер потока : 118 Мбайт (11%)
Выравнивание : Разделение по промежуткам
Продолжительность промежутка : 40 мс. (1,00 видеокадр)
Время предзагрузки промежутка : 500 мс





   Похожие торренты   Торрент   Размер 
В этой теме нет новых непрочитанных сообщений. Таврия (1959) DVDRip от New-Team

10 | 0

761.71 МБ

В этой теме нет новых непрочитанных сообщений. Таврия (1959) DVDRip-AVC от New-Team

10 | 0

1.09 ГБ

В этой теме нет новых непрочитанных сообщений. Жестокость (1959) DVDRip-AVC от New-Team

14 | 0

1.09 ГБ

В этой теме нет новых непрочитанных сообщений. Накануне (1959) DVDRip от New-Team

11 | 0

1.09 ГБ

В этой теме нет новых непрочитанных сообщений. Накануне (1959) DVDRip от New-Team

9 | 0

745.3 МБ

В этой теме нет новых непрочитанных сообщений. Сомбреро (1959) DVDRip-AVC от New-Team

14 | 1

744.59 МБ

В этой теме нет новых непрочитанных сообщений. Фуркат (1959) DVDRip-AVC от New-Team

11 | 0

1.09 ГБ




Вы не можете начинать темы
Вы не можете отвечать на сообщения
Вы не можете редактировать свои сообщения
Вы не можете удалять свои сообщения
Вы не можете добавлять вложения

Перейти:  
Для Мосгорсуда, Роскомнадзора и рекламодателей: mosgorsud-torrent[собачка]yandex.ru
 Вход
ppkBB3cker v.2 © 2008-2014 @ PPK
[ Time : 1.840s | 18 Queries | GZIP : Off ]

cron