img image001 image001 image001 image001 image001 image001 image001 image001 image001 image001 image001 image001 image001 image001 image001

Planets Sun Sun Sun
Статистика раздачи
Автор: Nickolas3434 | Размер: 1.09 ГБ | Добавлен: 29 ноя 2017
Раздают: 16    Качают: 0
Скачать торрент
Скачать торрент
Описание торрента

СообщениеДобавлено: 29 ноя 2017 


Мы "В КОНТАКТЕ"


Страна: СССР
Производство: Грузия-фильм
Жанр: драма, мелодрама
Год выпуска: 1959
Продолжительность: 01:19:25
Перевод: Не требуется
Cубтитры: нет
Оригинальная аудиодорожка: русский
Режиссер: Сико Долидзе
В ролях:
Серго Закариадзе, Белла Мирианашвили, Малхаз Горгиладзе, Акакий Васадзе, Динара Жоржолиани, Отар Коберидзе, Ладо Авалиани, Гиули Чохонелидзе, Григорий (Григол) Ткабладзе, Гиви Тохадзе, Медея Чахава, Меги Цулукидзе...
Об актёрах подробней
Описание:
Сегодня старый почтальон Георгий (Серго Закариадзе) в последний раз выходит на работу – завтра он уходит на пенсию. Вместе с ним Ламара - она не поступила в институт, и по путевке райкома комсомола пришла работать на почту. Георгий знакомит девушку с людьми, которым ей предстоит разносить письма и телеграммы.





Исходник: DVB
Качество видео: SATRip
Формат видео: AVI
Видео: 704х528 (4:3), 25 fps, XviD ~ 1753 kbps avg, 0.182 bit/pixel
Аудио: 48 kHz, Dolby Digital AC3 2.0, 192 kbps
Раздача от:
Общее
Полное имя : Den.posledniy.den.pervyy.1959.SATRip_[New-team]_by_AVP_Studio.avi
Формат : AVI
Формат/Информация : Audio Video Interleave
Размер файла : 1,09 Гбайт
Продолжительность : 1 ч. 19 м.
Общий поток : 1956 Кбит/сек
Видео
Идентификатор : 0
Формат : MPEG-4 Visual
Профиль формата : Advanced [email protected]
Настройки формата : BVOP1 / Custom Matrix
Параметр BVOP формата : 1
Параметр QPel формата : Нет
Параметр GMC формата : Без точки перехода
Параметр матрицы формата : Выборочная
Идентификатор кодека : XVID
Идентификатор кодека/Подсказка : XviD
Продолжительность : 1 ч. 19 м.
Битрейт : 1753 Кбит/сек
Ширина : 704 пикселя
Высота : 528 пикселей
Соотношение сторон : 4:3
Частота кадров : 25,000 кадров/сек
Цветовое пространство : YUV
Субдискретизация насыщенности : 4:2:0
Битовая глубина : 8 бит
Тип развёртки : Прогрессивная
Метод сжатия : С потерями
Бит/(Пиксели*Кадры) : 0.189
Размер потока : 996 Мбайт (90%)
Библиотека кодирования : XviD 73
Аудио
Идентификатор : 1
Формат : AC-3
Формат/Информация : Audio Coding 3
Идентификатор кодека : 2000
Продолжительность : 1 ч. 19 м.
Вид битрейта : Постоянный
Битрейт : 192 Кбит/сек
Каналы : 2 канала
Расположение каналов : Front: L R
Частота : 48,0 КГц
Частота кадров : 31,250 кадров/сек (1536 SPF)
Битовая глубина : 16 бит
Метод сжатия : С потерями
Размер потока : 109 Мбайт (10%)
Выравнивание : Соединение по промежуткам
Продолжительность промежутка : 32 мс. (0,80 видеокадр)





   Похожие торренты   Торрент   Размер 
В этой теме нет новых непрочитанных сообщений. День последний, день первый (1959) SATRip-AVC от New-Team

5 | 0

1.09 ГБ

В этой теме нет новых непрочитанных сообщений. День последний, день первый (1959) SATRip от New-Team

3 | 0

743.43 МБ

В этой теме нет новых непрочитанных сообщений. Аннушка (1959) SATRip от New-Team

5 | 2

745.25 МБ

В этой теме нет новых непрочитанных сообщений. Отчий дом (1959) SATRip от New-Team

2 | 3

1.09 ГБ

В этой теме нет новых непрочитанных сообщений. Отчий дом (1959) SATRip от New-Team

6 | 0

744.81 МБ

В этой теме нет новых непрочитанных сообщений. Отчий дом (1959) SATRip-AVC от New-Team

16 | 0

1.09 ГБ

В этой теме нет новых непрочитанных сообщений. Сын Иристона (1959) SATRip от New-Team

9 | 0

1.09 ГБ




Вы не можете начинать темы
Вы не можете отвечать на сообщения
Вы не можете редактировать свои сообщения
Вы не можете удалять свои сообщения
Вы не можете добавлять вложения

Перейти:  
Для Мосгорсуда, Роскомнадзора и рекламодателей: mosgorsud-torrent[собачка]yandex.ru
 Вход
ppkBB3cker v.2 © 2008-2014 @ PPK
[ Time : 0.053s | 20 Queries | GZIP : Off ]

cron