img image001 image001 image001 image001 image001 image001 image001 image001 image001 image001 image001 image001 image001 image001 image001

Planets Sun Sun Sun
Статистика раздачи
Автор: Nickolas3434 | Размер: 1.09 ГБ | Добавлен: 29 ноя 2017
Раздают: 5    Качают: 0
Скачать торрент
Скачать торрент
Описание торрента

СообщениеДобавлено: 29 ноя 2017 


Мы "В КОНТАКТЕ"


Страна: СССР
Производство: Грузия-фильм
Жанр: драма, мелодрама
Год выпуска: 1959
Продолжительность: 01:19:25
Перевод: Не требуется
Cубтитры: нет
Оригинальная аудиодорожка: русский
Режиссер: Сико Долидзе
В ролях:
Серго Закариадзе, Белла Мирианашвили, Малхаз Горгиладзе, Акакий Васадзе, Динара Жоржолиани, Отар Коберидзе, Ладо Авалиани, Гиули Чохонелидзе, Григорий (Григол) Ткабладзе, Гиви Тохадзе, Медея Чахава, Меги Цулукидзе...
Об актёрах подробней
Описание:
Сегодня старый почтальон Георгий (Серго Закариадзе) в последний раз выходит на работу – завтра он уходит на пенсию. Вместе с ним Ламара - она не поступила в институт, и по путевке райкома комсомола пришла работать на почту. Георгий знакомит девушку с людьми, которым ей предстоит разносить письма и телеграммы.





Исходник: DVB
Качество видео: SATRip-AVC
Формат видео: MKV
Видео: 704->748х562 (4:3), 25 fps, AVC ~ 1726 kbps avg, 0.174 bit/pixel
Аудио: 48 kHz, Dolby Digital AC3 2.0, 192 kbps
Раздача от:
Общее
Полное имя : Den.posledniy.den.pervyy.1959.SATRip-AVC_[New-team]_by_AVP_Studio.mkv
Формат : Matroska
Версия формата : Version 4 / Version 2
Размер файла : 1,09 Гбайт
Продолжительность : 1 ч. 19 м.
Общий поток : 1957 Кбит/сек
Программа кодирования : Lavf57.71.100
Библиотека кодирования : Lavf57.71.100
ErrorDetectionType : Per level 1
Видео
Идентификатор : 1
Формат : AVC
Формат/Информация : Advanced Video Codec
Профиль формата : [email protected]
Настройки формата : CABAC / 10 Ref Frames
Параметр CABAC формата : Да
Параметр RefFrames формата : 10 кадров
Идентификатор кодека : V_MPEG4/ISO/AVC
Продолжительность : 1 ч. 19 м.
Битрейт : 1726 Кбит/сек
Ширина : 704 пикселя
Высота : 562 пикселя
Соотношение сторон : 4:3
Режим частоты кадров : Постоянный
Частота кадров : 25,000 кадров/сек
Цветовое пространство : YUV
Субдискретизация насыщенности : 4:2:0
Битовая глубина : 8 бит
Тип развёртки : Прогрессивная
Бит/(Пиксели*Кадры) : 0.174
Размер потока : 981 Мбайт (88%)
Default : Да
Forced : Нет
Аудио
Идентификатор : 2
Формат : AC-3
Формат/Информация : Audio Coding 3
Идентификатор кодека : A_AC3
Продолжительность : 1 ч. 19 м.
Вид битрейта : Постоянный
Битрейт : 192 Кбит/сек
Каналы : 2 канала
Расположение каналов : Front: L R
Частота : 48,0 КГц
Частота кадров : 31,250 кадров/сек (1536 SPF)
Битовая глубина : 16 бит
Метод сжатия : С потерями
Задержка видео : -240 мс.
Размер потока : 109 Мбайт (10%)
Default : Да
Forced : Нет





   Похожие торренты   Торрент   Размер 
В этой теме нет новых непрочитанных сообщений. День последний, день первый (1959) SATRip от New-Team

16 | 0

1.09 ГБ

В этой теме нет новых непрочитанных сообщений. День последний, день первый (1959) SATRip от New-Team

3 | 0

743.43 МБ

В этой теме нет новых непрочитанных сообщений. Аннушка (1959) SATRip от New-Team

7 | 2

745.25 МБ

В этой теме нет новых непрочитанных сообщений. Отчий дом (1959) SATRip от New-Team

2 | 3

1.09 ГБ

В этой теме нет новых непрочитанных сообщений. Отчий дом (1959) SATRip от New-Team

6 | 0

744.81 МБ

В этой теме нет новых непрочитанных сообщений. Отчий дом (1959) SATRip-AVC от New-Team

16 | 0

1.09 ГБ

В этой теме нет новых непрочитанных сообщений. Сын Иристона (1959) SATRip от New-Team

9 | 0

1.09 ГБ




Вы не можете начинать темы
Вы не можете отвечать на сообщения
Вы не можете редактировать свои сообщения
Вы не можете удалять свои сообщения
Вы не можете добавлять вложения

Перейти:  
Для Мосгорсуда, Роскомнадзора и рекламодателей: mosgorsud-torrent[собачка]yandex.ru
 Вход
ppkBB3cker v.2 © 2008-2014 @ PPK
[ Time : 0.038s | 17 Queries | GZIP : Off ]

cron