img image001 image001 image001 image001 image001 image001 image001 image001 image001 image001 image001 image001 image001 image001 image001

Planets Sun Sun Sun
Статистика раздачи
Автор: Nickolas3434 | Размер: 1.62 ГБ | Добавлен: 27 ноя 2017
Раздают: 5    Качают: 0
Скачать торрент
Скачать торрент
Описание торрента

СообщениеДобавлено: 27 ноя 2017 

И жизнь, и слезы, и любовь

Жанр: Драма
Год выпуска: 1984
Режиссер: Николай Губенко
В ролях: Жанна Болотова, Елена Фадеева, Федор Никитин, Петр Щербаков, Сергей Мартинсон, Евгений Евстигнеев, Михаил Брылкин, Вапитолина Ильенко, Алексей Дроздов, Любовь Соколова, Тимофей Хлыстов, Наталья Гундарева, Мария Скворцова, Иван Казьмин
О фильме: С приездом нового главного врача все изменилось в Доме ветеранов. Смысл своей работы она видит не только в излечении физических недугов пациентов, но и в возвращении утраченного интереса к жизни, вере в то, что можно еще любить и быть любимыми...
Выпущено: СССР
Продолжительность: 01:36:52
Перевод: не требуется
Приз на кинофестивале в Рио-де-Жанейро в 1984г.
Призы на кинофестивалях в Брюсселе, Варне и Минске в 1985г.


Кодек: х264
Качество: DVDRip-AVC
Видео: MPEG-4 AVC, [email protected], 25 fps, 2200 Кбит/с
Звук: AC3, 2 ch, 192 Кбит/с

x264 [info]: frame I:720 Avg QP:12.34 size: 78250
x264 [info]: frame P:31460 Avg QP:16.92 size: 24361
x264 [info]: frame B:113140 Avg QP:18.83 size: 6858
Общее
Уникальный идентификатор : 234029066230882307466375800484759989216 (0xB0105BD08F0A4F8CA81C60711071EBE0)
Полное имя : E:Мои рипыИ жизнь, и слезы,и любовь_DVDRip-AVC - KORSAR .mkv
Формат : Matroska
Версия формата : Version 2
Размер файла : 1,62 Гбайт
Продолжительность : 1 ч. 36 м.
Общий поток : 2394 Кбит/сек
Дата кодирования : UTC 2017-10-25 18:02:26
Программа кодирования : mkvmerge v5.8.0 ('No Sleep / Pillow') built on Sep 2 2012 15:37:04
Библиотека кодирования : libebml v1.2.3 + libmatroska v1.3.0
Видео
Идентификатор : 1
Формат : AVC
Формат/Информация : Advanced Video Codec
Профиль формата : [email protected]
Настройки формата : CABAC / 15 Ref Frames
Параметр CABAC формата : Да
Параметр RefFrames формата : 15 кадров
Идентификатор кодека : V_MPEG4/ISO/AVC
Продолжительность : 1 ч. 36 м.
Битрейт : 2200 Кбит/сек
Ширина : 696 пикселей
Высота : 570 пикселей
Соотношение сторон : 4:3
Режим частоты кадров : Постоянный
Частота кадров : 25,000 кадров/сек
Цветовое пространство : YUV
Субдискретизация насыщенности : 4:2:0
Битовая глубина : 8 бит
Тип развёртки : Прогрессивная
Бит/(Пиксели*Кадры) : 0.222
Размер потока : 1,46 Гбайт (90%)
Библиотека кодирования : x264 core 152 r2851kMod ba24899
Настройки программы : cabac=1 / ref=15 / deblock=1:-2:-2 / analyse=0x3:0x133 / me=umh / subme=11 / psy=1 / fade_compensate=0.00 / psy_rd=1.05:0.10 / mixed_ref=1 / me_range=48 / chroma_me=1 / trellis=2 / 8x8dct=1 / cqm=0 / deadzone=21,11 / fast_pskip=0 / chroma_qp_offset=-3 / threads=12 / lookahead_threads=3 / sliced_threads=0 / nr=0 / decimate=0 / interlaced=0 / bluray_compat=0 / constrained_intra=0 / bframes=12 / b_pyramid=2 / b_adapt=2 / b_bias=0 / direct=3 / weightb=1 / open_gop=0 / weightp=2 / keyint=250 / keyint_min=25 / scenecut=40 / intra_refresh=0 / rc_lookahead=40 / rc=2pass / mbtree=0 / bitrate=2200 / ratetol=1.0 / qcomp=0.60 / qpmin=0 / qpmax=39 / qpstep=4 / cplxblur=20.0 / qblur=0.5 / vbv_maxrate=50000 / vbv_bufsize=62500 / nal_hrd=none / filler=0 / ip_ratio=1.40 / pb_ratio=1.30 / aq=1:1.00
Язык : English
Default : Да
Forced : Нет
Цветовой диапазон : Limited
Основные цвета : BT.601 PAL
Характеристики трансфера : BT.470 System B, BT.470 System G
Коэффициенты матрицы : BT.470 System B, BT.470 System G
Аудио
Идентификатор : 2
Формат : AC-3
Формат/Информация : Audio Coding 3
Параметр Endianness формата : Big
Идентификатор кодека : A_AC3
Продолжительность : 1 ч. 36 м.
Вид битрейта : Постоянный
Битрейт : 192 Кбит/сек
Каналы : 2 канала
Расположение каналов : Front: L R
Частота : 48,0 КГц
Частота кадров : 31,250 кадров/сек (1536 SPF)
Битовая глубина : 16 бит
Метод сжатия : С потерями
Размер потока : 133 Мбайт (8%)
Default : Да
Forced : Нет

Сравнение с исходником



   Похожие торренты   Торрент   Размер 
В этой теме нет новых непрочитанных сообщений. И жизнь, и слезы, и любовь... (1984) DVDRip

2 | 3

702.71 МБ

В этой теме нет новых непрочитанных сообщений. И жизнь, и слезы, и любовь... (1984) DVDRip

8 | 4

1.37 ГБ

В этой теме нет новых непрочитанных сообщений. И жизнь, и слёзы, и любовь (1983) DVDRip-AVC

1 | 0

1.8 ГБ

В этой теме нет новых непрочитанных сообщений. DJ D.V.A. - И жизнь, и слезы, и любовь... (2014) MP3

78 | 80

183.33 МБ

В этой теме нет новых непрочитанных сообщений. Слезы под дождем / Tears in the Rain (1988) DVDRip-AVC от KORSAR | P, А, L1

6 | 0

2.72 ГБ

В этой теме нет новых непрочитанных сообщений. Авантюристы / Les morfalous (1984) DVDRip-AVC от KORSAR | P2

4 | 0

2.77 ГБ

В этой теме нет новых непрочитанных сообщений. Самородок / Природный дар / The Natural (1984) DVDRip-AVC от KORSAR | P2

13 | 2

2.9 ГБ




Вы не можете начинать темы
Вы не можете отвечать на сообщения
Вы не можете редактировать свои сообщения
Вы не можете удалять свои сообщения
Вы не можете добавлять вложения

Перейти:  
Для Мосгорсуда, Роскомнадзора и рекламодателей: mosgorsud-torrent[собачка]yandex.ru
 Вход
ppkBB3cker v.2 © 2008-2014 @ PPK
[ Time : 0.030s | 17 Queries | GZIP : Off ]

cron