img image001 image001 image001 image001 image001 image001 image001 image001 image001 image001 image001 image001 image001 image001 image001

Planets Sun Sun Sun
Статистика раздачи
Автор: Nickolas3434 | Размер: 745.16 МБ | Добавлен: 27 ноя 2017
Раздают: 16    Качают: 5
Скачать торрент
Скачать торрент
Описание торрента

СообщениеДобавлено: 27 ноя 2017 


Мы "В КОНТАКТЕ"


Страна: СССР
Производство: Ленфильм
Жанр: драма
Год выпуска: 1959
Продолжительность: 00:39:28
Перевод: Не требуется
Cубтитры: нет
Оригинальная аудиодорожка: русский
Режиссер: Владимир Фетин
В ролях:
Евгений Матвеев, Леонид Пархоменко, Галина Карелина, Сергей Полежаев, Аркадий Трусов...
Об актёрах подробней
Описание:
По рассказу М. Шолохова.
В одном из эскадронов Красной Армии у лошади бойца Трофима родился жеребёнок. "Пристрелить!" - приказал командир эскадрона. Но не поднялась у Трофима рука на беззащитное животное. Так и остался стригунок при эскадроне. Потом жеребёнок отстал. Лишь на следующее утро он вместе с белоказаками догнал своих. Услышав зов матери, жеребёнок поплыл через разделяющую их реку и начал тонуть. Трофим бросился его спасать. Когда счастливый боец выбрался с жеребёнком на берег, его настигла пуля белого офицера.
Творческая мастерская Г. Козинцева





Исходник: DVB
Качество видео: SATRip-AVC
Формат видео: MKV
Видео: 704->760х570 (4:3), 25 fps, H264 ~ 2445 kbps avg, 0.244 bit/pixel
Аудио: 48 kHz, Dolby Digital AC3 2.0, 192 kbps
Раздача от:
Общее
Полное имя : Zherebenok.1959.DVDRip-AVC_[New-team]_by_AVP_Studio.mkv
Формат : Matroska
Версия формата : Version 4 / Version 2
Размер файла : 745 Мбайт
Продолжительность : 39 м. 28 с.
Общий поток : 2640 Кбит/сек
Дата кодирования : UTC 2017-11-25 14:05:03
Программа кодирования : mkvmerge v17.0.0 ('Be Ur Friend') 64-bit
Библиотека кодирования : libebml v1.3.5 + libmatroska v1.4.8
Видео
Идентификатор : 1
Формат : AVC
Формат/Информация : Advanced Video Codec
Профиль формата : [email protected]
Настройки формата : CABAC / 10 Ref Frames
Параметр CABAC формата : Да
Параметр RefFrames формата : 10 кадров
Идентификатор кодека : V_MPEG4/ISO/AVC
Продолжительность : 39 м. 28 с.
Битрейт : 2445 Кбит/сек
Ширина : 704 пикселя
Высота : 570 пикселей
Соотношение сторон : 4:3
Режим частоты кадров : Постоянный
Частота кадров : 25,000 кадров/сек
Цветовое пространство : YUV
Субдискретизация насыщенности : 4:2:0
Битовая глубина : 8 бит
Тип развёртки : Прогрессивная
Бит/(Пиксели*Кадры) : 0.244
Размер потока : 690 Мбайт (93%)
Библиотека кодирования : x264 core 130 r2273 b3065e6
Настройки программы : cabac=1 / ref=10 / deblock=1:-2:-1 / analyse=0x3:0x113 / me=umh / subme=10 / psy=1 / psy_rd=1.00:0.00 / mixed_ref=1 / me_range=32 / chroma_me=1 / trellis=2 / 8x8dct=1 / cqm=0 / deadzone=21,11 / fast_pskip=1 / chroma_qp_offset=-2 / threads=6 / lookahead_threads=1 / sliced_threads=0 / nr=0 / decimate=0 / interlaced=0 / bluray_compat=0 / constrained_intra=0 / bframes=8 / b_pyramid=2 / b_adapt=2 / b_bias=0 / direct=3 / weightb=1 / open_gop=0 / weightp=2 / keyint=250 / keyint_min=25 / scenecut=40 / intra_refresh=0 / rc=2pass / mbtree=0 / bitrate=2445 / ratetol=1.0 / qcomp=0.60 / qpmin=0 / qpmax=69 / qpstep=4 / cplxblur=20.0 / qblur=0.5 / ip_ratio=1.40 / pb_ratio=1.30 / aq=1:1.00
Default : Да
Forced : Нет
Аудио
Идентификатор : 2
Формат : AC-3
Формат/Информация : Audio Coding 3
Идентификатор кодека : A_AC3
Продолжительность : 39 м. 28 с.
Вид битрейта : Постоянный
Битрейт : 192 Кбит/сек
Каналы : 2 канала
Расположение каналов : Front: L R
Частота : 48,0 КГц
Частота кадров : 31,250 кадров/сек (1536 SPF)
Битовая глубина : 16 бит
Метод сжатия : С потерями
Размер потока : 54,2 Мбайт (7%)
Язык : Russian
Default : Да
Forced : Нет





   Похожие торренты   Торрент   Размер 
В этой теме нет новых непрочитанных сообщений. Жеребенок (1959) DVDRip от New-Team

6 | 3

742.87 МБ

В этой теме нет новых непрочитанных сообщений. Таврия (1959) DVDRip от New-Team

11 | 0

1.09 ГБ

В этой теме нет новых непрочитанных сообщений. Шинель (1959) DVDRip-AVC от New-Team

33 | 0

1.09 ГБ

В этой теме нет новых непрочитанных сообщений. Таврия (1959) DVDRip от New-Team

6 | 0

761.71 МБ

В этой теме нет новых непрочитанных сообщений. Таврия (1959) DVDRip-AVC от New-Team

26 | 0

1.09 ГБ

В этой теме нет новых непрочитанных сообщений. Шинель (1959) DVDRip от New-Team

25 | 0

1.09 ГБ

В этой теме нет новых непрочитанных сообщений. Шинель (1959) DVDRip от New-Team

3 | 0

745.39 МБ




Вы не можете начинать темы
Вы не можете отвечать на сообщения
Вы не можете редактировать свои сообщения
Вы не можете удалять свои сообщения
Вы не можете добавлять вложения

Перейти:  
Для Мосгорсуда, Роскомнадзора и рекламодателей: mosgorsud-torrent[собачка]yandex.ru
 Вход
ppkBB3cker v.2 © 2008-2014 @ PPK
[ Time : 0.036s | 18 Queries | GZIP : Off ]

cron