img image001 image001 image001 image001 image001 image001 image001 image001 image001 image001 image001 image001 image001 image001 image001

Planets Sun Sun Sun
Статистика раздачи
Автор: Nickolas3434 | Размер: 742.87 МБ | Добавлен: 27 ноя 2017
Раздают: 6    Качают: 3
Скачать торрент
Скачать торрент
Описание торрента

СообщениеДобавлено: 27 ноя 2017 


Мы "В КОНТАКТЕ"


Страна: СССР
Производство: Ленфильм
Жанр: драма
Год выпуска: 1959
Продолжительность: 00:39:28
Перевод: Не требуется
Cубтитры: нет
Оригинальная аудиодорожка: русский
Режиссер: Владимир Фетин
В ролях:
Евгений Матвеев, Леонид Пархоменко, Галина Карелина, Сергей Полежаев, Аркадий Трусов...
Об актёрах подробней
Описание:
По рассказу М. Шолохова.
В одном из эскадронов Красной Армии у лошади бойца Трофима родился жеребёнок. "Пристрелить!" - приказал командир эскадрона. Но не поднялась у Трофима рука на беззащитное животное. Так и остался стригунок при эскадроне. Потом жеребёнок отстал. Лишь на следующее утро он вместе с белоказаками догнал своих. Услышав зов матери, жеребёнок поплыл через разделяющую их реку и начал тонуть. Трофим бросился его спасать. Когда счастливый боец выбрался с жеребёнком на берег, его настигла пуля белого офицера.
Творческая мастерская Г. Козинцева





Исходник: DVB
Качество видео: SATRip
Формат видео: AVI
Видео: 704х528 (4:3), 25 fps, XviD ~ 2430 kbps avg, 0.261 bit/pixel
Аудио: 48 kHz, Dolby Digital AC3 2.0, 192 kbps
Раздача от:
Общее
Полное имя : Zherebenok.1959.DVDRip_[New-team]_by_AVP_Studio.avi
Формат : AVI
Формат/Информация : Audio Video Interleave
Размер файла : 743 Мбайт
Продолжительность : 39 м. 28 с.
Общий поток : 2632 Кбит/сек
Программа кодирования : VirtualDubMod 1.5.10.3 | www.virtualdub-fr.org || (build 2550/release)
Библиотека кодирования : VirtualDubMod build 2550/release
Видео
Идентификатор : 0
Формат : MPEG-4 Visual
Профиль формата : Advanced [email protected]
Настройки формата : BVOP1 / Custom Matrix
Параметр BVOP формата : 1
Параметр QPel формата : Нет
Параметр GMC формата : Без точки перехода
Параметр матрицы формата : Выборочная
Идентификатор кодека : XVID
Идентификатор кодека/Подсказка : XviD
Продолжительность : 39 м. 28 с.
Битрейт : 2430 Кбит/сек
Ширина : 704 пикселя
Высота : 528 пикселей
Соотношение сторон : 4:3
Частота кадров : 25,000 кадров/сек
Цветовое пространство : YUV
Субдискретизация насыщенности : 4:2:0
Битовая глубина : 8 бит
Тип развёртки : Прогрессивная
Метод сжатия : С потерями
Бит/(Пиксели*Кадры) : 0.261
Размер потока : 686 Мбайт (92%)
Библиотека кодирования : XviD 73
Аудио
Идентификатор : 1
Формат : AC-3
Формат/Информация : Audio Coding 3
Идентификатор кодека : 2000
Продолжительность : 39 м. 28 с.
Вид битрейта : Постоянный
Битрейт : 192 Кбит/сек
Каналы : 2 канала
Расположение каналов : Front: L R
Частота : 48,0 КГц
Частота кадров : 31,250 кадров/сек (1536 SPF)
Битовая глубина : 16 бит
Метод сжатия : С потерями
Размер потока : 54,2 Мбайт (7%)
Выравнивание : Разделение по промежуткам
Продолжительность промежутка : 40 мс. (1,00 видеокадр)
Время предзагрузки промежутка : 500 мс





   Похожие торренты   Торрент   Размер 
В этой теме нет новых непрочитанных сообщений. Жеребенок (1959) DVDRip-AVC от New-Team

16 | 5

745.16 МБ

В этой теме нет новых непрочитанных сообщений. Таврия (1959) DVDRip от New-Team

11 | 0

1.09 ГБ

В этой теме нет новых непрочитанных сообщений. Шинель (1959) DVDRip-AVC от New-Team

33 | 0

1.09 ГБ

В этой теме нет новых непрочитанных сообщений. Таврия (1959) DVDRip от New-Team

6 | 0

761.71 МБ

В этой теме нет новых непрочитанных сообщений. Таврия (1959) DVDRip-AVC от New-Team

26 | 0

1.09 ГБ

В этой теме нет новых непрочитанных сообщений. Шинель (1959) DVDRip от New-Team

25 | 0

1.09 ГБ

В этой теме нет новых непрочитанных сообщений. Шинель (1959) DVDRip от New-Team

3 | 0

745.39 МБ




Вы не можете начинать темы
Вы не можете отвечать на сообщения
Вы не можете редактировать свои сообщения
Вы не можете удалять свои сообщения
Вы не можете добавлять вложения

Перейти:  
Для Мосгорсуда, Роскомнадзора и рекламодателей: mosgorsud-torrent[собачка]yandex.ru
 Вход
ppkBB3cker v.2 © 2008-2014 @ PPK
[ Time : 0.043s | 17 Queries | GZIP : Off ]

cron