img image001 image001 image001 image001 image001 image001 image001 image001 image001 image001 image001 image001 image001 image001 image001

Planets Sun Sun Sun
Статистика раздачи
Автор: Nickolas3434 | Размер: 745.7 МБ | Добавлен: 24 ноя 2017
Раздают: 14    Качают: 0
Скачать торрент
Скачать торрент
Описание торрента

СообщениеДобавлено: 24 ноя 2017 


Мы "В КОНТАКТЕ"


Страна: СССР
Производство: Мосфильм
Жанр: драма, мелодрама
Год выпуска: 1959
Продолжительность: 01:27:08
Перевод: Не требуется
Cубтитры: нет
Оригинальная аудиодорожка: русский
Режиссер: Константин Воинов
В ролях:
Валентин Зубков, Лилиана Алешникова, Татьяна Конюхова, Евгений Буренков, Николай Сергеев, Елена Максимова, Виктор Кольцов (Кутаков), Ольга Наровчатова, Виктор Лобзов ...
Об актёрах подробней
Описание:
Чехословакия, 9 мая 1945 года. Уже объявили об окончании войны. Николай Савельев (Валентин Зубков) мечтает о том, как он вернётся в родной город и снова будет преподавать детям историю. Внезапно начинается бой - эсесовская часть пытается прорваться на запад. Командир батареи Корень (Евгений Буренков) струсил и бежал. Командвание принимает на себя Савельев. Он получает тяжелое ранение, которое приводит к слепоте. До родного города его сопровождает медсестра Светлана (Лилиана Алёшникова). Не сразу удаётся Николаю найти своё место в жизни...





Исходник: DVB
Качество видео: SATRip
Формат видео: AVI
Видео: 640х480 (4:3), 25 fps, XviD ~ 1059 kbps avg, 0.138 bit/pixel
Аудио: 48 kHz, MP3 2.0, 128 kbps
Раздача от:
Общее
Полное имя : Solnce.svetit.vsem.1959.SATRip-745_[New-team]_by_AVP_Studio.avi
Формат : AVI
Формат/Информация : Audio Video Interleave
Размер файла : 746 Мбайт
Продолжительность : 1 ч. 27 м.
Общий поток : 1197 Кбит/сек
Программа кодирования : VirtualDubMod 1.5.10.3 | www.virtualdub-fr.org || (build 2550/release)
Библиотека кодирования : VirtualDubMod build 2550/release
Видео
Идентификатор : 0
Формат : MPEG-4 Visual
Профиль формата : Advanced [email protected]
Параметр BVOP формата : 1
Параметр QPel формата : Нет
Параметр GMC формата : Без точки перехода
Параметр матрицы формата : Выборочная
Идентификатор кодека : XVID
Идентификатор кодека/Подсказка : XviD
Продолжительность : 1 ч. 27 м.
Битрейт : 1059 Кбит/сек
Ширина : 640 пикселей
Высота : 480 пикселей
Соотношение сторон : 4:3
Частота кадров : 25,000 кадров/сек
Цветовое пространство : YUV
Субдискретизация насыщенности : 4:2:0
Битовая глубина : 8 бит
Тип развёртки : Прогрессивная
Метод сжатия : С потерями
Бит/(Пиксели*Кадры) : 0.138
Размер потока : 660 Мбайт (88%)
Библиотека кодирования : XviD 73
Аудио
Идентификатор : 1
Формат : MPEG Audio
Версия формата : Version 1
Профиль формата : Layer 3
Идентификатор кодека : 55
Идентификатор кодека/Подсказка : MP3
Продолжительность : 1 ч. 27 м.
Вид битрейта : Постоянный
Битрейт : 128 Кбит/сек
Каналы : 2 канала
Частота : 48,0 КГц
Метод сжатия : С потерями
Размер потока : 79,8 Мбайт (11%)
Выравнивание : Соединение по промежуткам
Продолжительность промежутка : 40 мс. (1,00 видеокадр)
Время предзагрузки промежутка : 504 мс.
Библиотека кодирования : LAME3.99r
Настройки программы : -m s -V 4 -q 2 -lowpass 17 -b 128





   Похожие торренты   Торрент   Размер 
В этой теме нет новых непрочитанных сообщений. Солнце светит всем (1959) SATRip-AVC от New-Team

4 | 0

1.09 ГБ

В этой теме нет новых непрочитанных сообщений. Солнце светит всем (1959) SATRip от New-Team

6 | 0

1.09 ГБ

В этой теме нет новых непрочитанных сообщений. Солнце светит всем (1959) SATRip

34 | 15

745.07 МБ

В этой теме нет новых непрочитанных сообщений. Золотые купола - На всех солнце светит (2009) MP3

0 | 3

115.81 МБ

В этой теме нет новых непрочитанных сообщений. Муму (1959) SATRip-AVC от New-Team

32 | 0

744.35 МБ

В этой теме нет новых непрочитанных сообщений. Мальчики (1959) SATRip от New-Team

6 | 1

745.08 МБ

В этой теме нет новых непрочитанных сообщений. Сын Иристона (1959) SATRip-AVC от New-Team

18 | 0

1.09 ГБ




Вы не можете начинать темы
Вы не можете отвечать на сообщения
Вы не можете редактировать свои сообщения
Вы не можете удалять свои сообщения
Вы не можете добавлять вложения

Перейти:  
Для Мосгорсуда, Роскомнадзора и рекламодателей: mosgorsud-torrent[собачка]yandex.ru
 Вход
ppkBB3cker v.2 © 2008-2014 @ PPK
[ Time : 0.038s | 17 Queries | GZIP : Off ]

cron