img image001 image001 image001 image001 image001 image001 image001 image001 image001 image001 image001 image001 image001 image001 image001

Planets Sun Sun Sun
Статистика раздачи
Автор: Nickolas3434 | Размер: 1.09 ГБ | Добавлен: 23 ноя 2017
Раздают: 33    Качают: 0
Скачать торрент
Скачать торрент
Описание торрента

СообщениеДобавлено: 23 ноя 2017 


Мы "В КОНТАКТЕ"


Страна: СССР
Производство: Киностудия им. Горького
Жанр: драма, биография, история
Год выпуска: 1959
Продолжительность: 01:40:17
Перевод: Не требуется
Cубтитры: нет
Оригинальная аудиодорожка: русский
Режиссер: Борис Бунеев
В ролях:
Юрий (Георгий) Кольцов, Вера Дихтяр, Юрий Кротенко, Нина Меньшикова, Юрий Любимов, Владимир Балашов, Георгий Бударов, Юрий Медведев, Владимир Трошин...
Об актёрах подробней
Описание:
Биографическая киноповесть о первом русском исследователе космоса, ученом-изобретателе, ракетостроителе - К. Э. Циолковском.
19 век. В маленькую провинциальную Калугу сослан приват-доцент Петербургского университета Дорофеев. Он привозит школьному учителю Циолковскому (Юрий Кольцов) письмо от Менделеева и Столетова. Выдающиеся учёные России высказывают своё одобрение смелым проектам замечательного изобретателя. Но чиновники из Императорского Технического общества неизменно отклоняют эти проекты, как слишком фантастические. Увлечённость Циолковского наукой, его неприспособленность к повседневной реальности окружающими считается чудачеством.






Исходник: DVB
Качество видео: SATRip
Формат видео: AVI
Видео: 720х352 (2,045:1), 25 fps, XviD ~ 1354 kbps avg, 0.214 bit/pixel
Аудио: 48 kHz, Dolby Digital AC3 2.0, 192 kbps
Раздача от:
Общее
Полное имя : Chelovek.s.planety.Zemlya.1959.SATRip_[New-team]_by_AVP_Studio.avi
Формат : AVI
Формат/Информация : Audio Video Interleave
Размер файла : 1,09 Гбайт
Продолжительность : 1 ч. 40 м.
Общий поток : 1556 Кбит/сек
Программа кодирования : VirtualDubMod 1.5.10.3 | www.virtualdub-fr.org || (build 2550/release)
Библиотека кодирования : VirtualDubMod build 2550/release
Видео
Идентификатор : 0
Формат : MPEG-4 Visual
Профиль формата : Advanced [email protected]
Параметр BVOP формата : 1
Параметр QPel формата : Нет
Параметр GMC формата : Без точки перехода
Параметр матрицы формата : Выборочная
Идентификатор кодека : XVID
Идентификатор кодека/Подсказка : XviD
Продолжительность : 1 ч. 40 м.
Битрейт : 1354 Кбит/сек
Ширина : 720 пикселей
Высота : 352 пикселя
Соотношение сторон : 2,045
Частота кадров : 25,000 кадров/сек
Цветовое пространство : YUV
Субдискретизация насыщенности : 4:2:0
Битовая глубина : 8 бит
Тип развёртки : Прогрессивная
Метод сжатия : С потерями
Бит/(Пиксели*Кадры) : 0.214
Размер потока : 971 Мбайт (87%)
Библиотека кодирования : XviD 73
Аудио
Идентификатор : 1
Формат : AC-3
Формат/Информация : Audio Coding 3
Параметр Endianness формата : Big
Идентификатор кодека : 2000
Продолжительность : 1 ч. 40 м.
Вид битрейта : Постоянный
Битрейт : 192 Кбит/сек
Каналы : 2 канала
Расположение каналов : Front: L R
Частота : 48,0 КГц
Частота кадров : 31,250 кадров/сек (1536 SPF)
Битовая глубина : 16 бит
Метод сжатия : С потерями
Размер потока : 138 Мбайт (12%)
Выравнивание : Разделение по промежуткам
Продолжительность промежутка : 40 мс. (1,00 видеокадр)
Время предзагрузки промежутка : 500 мс





   Похожие торренты   Торрент   Размер 
В этой теме нет новых непрочитанных сообщений. Человек с планеты Земля (1959) SATRip-AVC от New-Team

11 | 0

1.09 ГБ

В этой теме нет новых непрочитанных сообщений. Человек с Земли / Человек с планеты Земля / The Man from Earth (2007) BDRip от HQCLUB

752 | 40

1.45 ГБ

В этой теме нет новых непрочитанных сообщений. Человек с планеты Земля / The Man from Earth (2007) HDRip

138 | 4

745.41 МБ

В этой теме нет новых непрочитанных сообщений. Человек с планеты Земля / The Man from Earth (2007) HDRip от AndrewWhite

46 | 6

1.36 ГБ

В этой теме нет новых непрочитанных сообщений. Земля: Мощь планеты / Earth: The Power of the Planet (2007) BDRip 720p от NOLIMITS-TEAM

3 | 2

11.06 ГБ

В этой теме нет новых непрочитанных сообщений. BBC : Земля / Земля - Картина нашей планеты / Earth (2007) BDRip от Rulya74

58 | 8

1.45 ГБ

В этой теме нет новых непрочитанных сообщений. Майлз с планеты будущего / Майлз с другой планеты / Miles from Tomorrowland [01x01-04 из ?] (2015) SATRip от New-Team | D

1003 | 73

1.29 ГБ




Вы не можете начинать темы
Вы не можете отвечать на сообщения
Вы не можете редактировать свои сообщения
Вы не можете удалять свои сообщения
Вы не можете добавлять вложения

Перейти:  
Для Мосгорсуда, Роскомнадзора и рекламодателей: mosgorsud-torrent[собачка]yandex.ru
 Вход
ppkBB3cker v.2 © 2008-2014 @ PPK
[ Time : 0.037s | 17 Queries | GZIP : Off ]

cron