img image001 image001 image001 image001 image001 image001 image001 image001 image001 image001 image001 image001 image001 image001 image001

Planets Sun Sun Sun
Статистика раздачи
Автор: Nickolas3434 | Размер: 745.17 МБ | Добавлен: 21 ноя 2017
Раздают: 5    Качают: 0
Скачать торрент
Скачать торрент
Описание торрента

СообщениеДобавлено: 21 ноя 2017 


Мы "В КОНТАКТЕ"


Страна: СССР
Производство: Мосфильм
Жанр: драма, мелодрама
Год выпуска: 1959
Продолжительность: 01:30:24
Перевод: Не требуется
Cубтитры: нет
Оригинальная аудиодорожка: русский
Режиссер: Иван Пырьев
В ролях:
Людмила Марченко, Олег Стриженов, Анатолий Федоринов, Вера Попова, Светлана Харитонова...
Об актёрах подробней
Описание:
Романтическая драма по одноименной повести Ф.М.Достоевского.
События излагаются от лица рассказчика – Мечтателя (Олег Стриженов). Петербург сороковых годов 19 века. Лето, белые ночи. В одну из таких ночей Мечтатель прогуливался по набережной Невы. Здесь происходит его знакомство с Настенькой (Людмила Марченко). Молодые люди рассказывают друг другу о себе, своей жизни…





Источник: DVD5 R5
Качество видео: DVDRip
Формат видео: AVI
Видео: 640x480 (4:3), 25 fps, XviD ~ 1015 kbps avg, 0.132 bit/pixel
Аудио: 48 kHz, MP3 2.0, 128 kbps
Раздача от:
Общее
Полное имя : Belye.nochi.1959.DVDRip-745_[New-team]_by_AVP_Studio.avi
Формат : AVI
Формат/Информация : Audio Video Interleave
Размер файла : 745 Мбайт
Продолжительность : 1 ч. 30 м.
Общий поток : 1153 Кбит/сек
Программа кодирования : VirtualDubMod 1.5.10.3 | www.virtualdub-fr.org || (build 2550/release)
Библиотека кодирования : VirtualDubMod build 2550/release
Видео
Идентификатор : 0
Формат : MPEG-4 Visual
Профиль формата : Advanced [email protected]
Параметр BVOP формата : 1
Параметр QPel формата : Нет
Параметр GMC формата : Без точки перехода
Параметр матрицы формата : Выборочная
Идентификатор кодека : XVID
Идентификатор кодека/Подсказка : XviD
Продолжительность : 1 ч. 30 м.
Битрейт : 1015 Кбит/сек
Ширина : 640 пикселей
Высота : 480 пикселей
Соотношение сторон : 4:3
Частота кадров : 25,000 кадров/сек
Цветовое пространство : YUV
Субдискретизация насыщенности : 4:2:0
Битовая глубина : 8 бит
Тип развёртки : Прогрессивная
Метод сжатия : С потерями
Бит/(Пиксели*Кадры) : 0.132
Размер потока : 656 Мбайт (88%)
Библиотека кодирования : XviD 73
Аудио
Идентификатор : 1
Формат : MPEG Audio
Версия формата : Version 1
Профиль формата : Layer 3
Идентификатор кодека : 55
Идентификатор кодека/Подсказка : MP3
Продолжительность : 1 ч. 30 м.
Вид битрейта : Постоянный
Битрейт : 128 Кбит/сек
Каналы : 2 канала
Частота : 48,0 КГц
Метод сжатия : С потерями
Размер потока : 82,8 Мбайт (11%)
Выравнивание : Соединение по промежуткам
Продолжительность промежутка : 40 мс. (1,00 видеокадр)
Время предзагрузки промежутка : 504 мс.
Библиотека кодирования : LAME3.99r
Настройки программы : -m s -V 4 -q 2 -lowpass 17 -b 128





   Похожие торренты   Торрент   Размер 
В этой теме нет новых непрочитанных сообщений. Белые ночи (1959) DVDRip от New-Team

1 | 0

1.09 ГБ

В этой теме нет новых непрочитанных сообщений. Белые ночи (1959) DVDRip-AVC от New-Team

6 | 3

1.09 ГБ

В этой теме нет новых непрочитанных сообщений. Белые ночи (1959) DVDRip

206 | 6

1.37 ГБ

В этой теме нет новых непрочитанных сообщений. Белые ночи почтальона Алексея Тряпицына (2014) HDTVRip-AVC от New-Team

258 | 20

744.02 МБ

В этой теме нет новых непрочитанных сообщений. Белые ночи почтальона Алексея Тряпицына (2014) HDTVRip-AVC от New-Team

505 | 37

1.46 ГБ

В этой теме нет новых непрочитанных сообщений. Белые ночи / White Nights (1985) DVDRip

5 | 0

2.07 ГБ

В этой теме нет новых непрочитанных сообщений. Белые ночи / White Nights (1985) DVDRip-AVC | P

63 | 11

3.18 ГБ




Вы не можете начинать темы
Вы не можете отвечать на сообщения
Вы не можете редактировать свои сообщения
Вы не можете удалять свои сообщения
Вы не можете добавлять вложения

Перейти:  
Для Мосгорсуда, Роскомнадзора и рекламодателей: mosgorsud-torrent[собачка]yandex.ru
 Вход
ppkBB3cker v.2 © 2008-2014 @ PPK
[ Time : 0.041s | 17 Queries | GZIP : Off ]

cron