img image001 image001 image001 image001 image001 image001 image001 image001 image001 image001 image001 image001 image001 image001 image001

Planets Sun Sun Sun
Статистика раздачи
Автор: Nickolas3434 | Размер: 746.48 МБ | Добавлен: 21 ноя 2017
Раздают: 69    Качают: 2
Скачать торрент
Скачать торрент
Описание торрента

СообщениеДобавлено: 21 ноя 2017 

Информация о фильме
Название: Тень
Год выхода: 1971
Жанр: сказка, фэнтези, драма, мелодрама, комедия
Режиссер: Надежда Кошеверова
В ролях: Олег Даль, Владимир Этуш, Сергей Филиппов, Зиновий Гердт, Людмила Гурченко, Андрей Миронов, Марина Неелова, Анастасия Вертинская, Георгий Вицин
О фильме :
Фильм-сказка, фильм-притча по пьесе Евгения Шварца (который, в свою очередь, отталкивался от сюжета одноименной сказки Андерсена). Фильм будет одинаково интересен для детей и взрослых. Это по-шварцевски смешная и мудрая история о борьбе умного и доброго Ученого с его темной ипостасью - Тенью. Победу в этой борьбе не может одержать ни Светлое, ни Темное, отчего история становится лишь более правдивой и жизненной.Традиционная для сказочного сюжета тема борьбы Добра со Злом находит в фильме свое воплощение в противостоянии доброго и честного Ученого и его злобной и ничтожной Тени.

Страна: СССР
Продолжительность: 01:26:14
Язык: Русский
Файл
Формат: MKV
Качество: DVDRip-AVC
Видео: MPEG-4 AVC, 704x328, ~ 1132 Кбит/с
Аудио: AAC-LC, 2 ch, ~ 76 Кбит/с
Общее
Уникальный идентификатор : 174443067180518507424899272120846353811 (0x833C833E2B3A41DDB6BA5ACB81F58593)
Полное имя : D:MOVIESTENJ.1971.ExKinoRay.mkv
Формат : Matroska
Версия формата : Version 4 / Version 2
Размер файла : 746 Мбайт
Продолжительность : 1 ч. 26 м.
Общий поток : 1210 Кбит/сек
Дата кодирования : UTC 2017-11-19 21:35:37
Программа кодирования : mkvmerge v15.0.0 ('Duel with the Devil') 64-bit
Библиотека кодирования : libebml v1.3.5 + libmatroska v1.4.5
Видео
Идентификатор : 1
Формат : AVC
Формат/Информация : Advanced Video Codec
Профиль формата : [email protected]
Параметр CABAC формата : Да
Параметр RefFrames формата : 10 кадров
Идентификатор кодека : V_MPEG4/ISO/AVC
Продолжительность : 1 ч. 26 м.
Битрейт : 1132 Кбит/сек
Ширина : 704 пикселя
Высота : 328 пикселей
Соотношение сторон : 2,146
Режим частоты кадров : Постоянный
Частота кадров : 25,000 кадров/сек
Цветовое пространство : YUV
Субдискретизация насыщенности : 4:2:0
Битовая глубина : 8 бит
Тип развёртки : Прогрессивная
Бит/(Пиксели*Кадры) : 0.196
Размер потока : 698 Мбайт (94%)
Библиотека кодирования : x264 core 152 r2851kMod ba24899
Настройки программы : cabac=1 / ref=10 / deblock=1:-3:-3 / analyse=0x3:0x133 / me=umh / subme=11 / psy=1 / fade_compensate=0.00 / psy_rd=1.00:0.07 / mixed_ref=1 / me_range=32 / chroma_me=1 / trellis=2 / 8x8dct=1 / cqm=0 / deadzone=21,11 / fast_pskip=0 / chroma_qp_offset=-3 / threads=6 / lookahead_threads=1 / sliced_threads=0 / nr=0 / decimate=0 / interlaced=0 / bluray_compat=0 / constrained_intra=0 / bframes=10 / b_pyramid=2 / b_adapt=2 / b_bias=0 / direct=3 / weightb=1 / open_gop=0 / weightp=2 / keyint=250 / keyint_min=24 / scenecut=40 / intra_refresh=0 / rc_lookahead=40 / rc=2pass / mbtree=1 / bitrate=1132 / ratetol=1.0 / qcomp=0.60 / qpmin=0 / qpmax=69 / qpstep=4 / cplxblur=20.0 / qblur=0.5 / vbv_maxrate=50000 / vbv_bufsize=62500 / nal_hrd=none / filler=0 / ip_ratio=1.40 / aq=3:1.00
Default : Да
Forced : Нет
Аудио
Идентификатор : 2
Формат : AAC
Формат/Информация : Advanced Audio Codec
Профиль формата : LC
Идентификатор кодека : A_AAC
Продолжительность : 1 ч. 26 м.
Битрейт : 76,0 Кбит/сек
Каналы : 2 канала
Расположение каналов : Front: L R
Частота : 48,0 КГц
Частота кадров : 46,875 кадров/сек (1024 SPF)
Метод сжатия : С потерями
Задержка видео : 91 мс.
Размер потока : 46,9 Мбайт (6%)
Default : Да
Forced : Нет


Релиз от:



   Похожие торренты   Торрент   Размер 
В этой теме нет новых непрочитанных сообщений. Тень (1971) DVDRip от SergV | Полная реставрация фильма

86 | 13

1.37 ГБ

В этой теме нет новых непрочитанных сообщений. Тегеран-43 (1980) DVDRip от ExKinoRay | Полная реставрация

247 | 28

2.03 ГБ

В этой теме нет новых непрочитанных сообщений. Щит и меч (1968) DVDRip-AVC | Полная реставрация

180 | 16

4.72 ГБ

В этой теме нет новых непрочитанных сообщений. Гений (1991) DVDRip | Полная реставрация

186 | 35

1.46 ГБ

В этой теме нет новых непрочитанных сообщений. Старший сын (1975) DVDRip | Полная реставрация

58 | 12

1.9 ГБ

В этой теме нет новых непрочитанных сообщений. Служебный роман (1977) DVDRip | Полная реставрация

38 | 10

2.05 ГБ

В этой теме нет новых непрочитанных сообщений. Остров сокровищ (1988) DVDRip-AVC | КП, Полная реставрация

600 | 53

2.11 ГБ




Вы не можете начинать темы
Вы не можете отвечать на сообщения
Вы не можете редактировать свои сообщения
Вы не можете удалять свои сообщения
Вы не можете добавлять вложения

Перейти:  
Для Мосгорсуда, Роскомнадзора и рекламодателей: mosgorsud-torrent[собачка]yandex.ru
 Вход
ppkBB3cker v.2 © 2008-2014 @ PPK
[ Time : 0.036s | 18 Queries | GZIP : Off ]

cron