img image001 image001 image001 image001 image001 image001 image001 image001 image001 image001 image001 image001 image001 image001 image001

Planets Sun Sun Sun
Статистика раздачи
Автор: Nickolas3434 | Размер: 746.52 МБ | Добавлен: 19 ноя 2017
Раздают: 15    Качают: 1
Скачать торрент
Скачать торрент
Описание торрента

СообщениеДобавлено: 19 ноя 2017 

Информация о фильме
Оригинальное название: Берегись автомобиля
Год выхода: 1966
Жанр: мелодрама, комедия, криминал
Режиссер: Эльдар Рязанов
В ролях: Иннокентий Смоктуновский, Олег Ефремов, Любовь Добржанская, Анатолий Папанов, Ольга Аросева, Андрей Миронов, Георгий Жжёнов, Евгений Евстигнеев, Донатас Банионис, Любовь Соколова
О фильме :
Эта удивительная история вполне может считаться фантастической. Скромный и застенчивый страховой агент, актер самодеятельного театра Юрий Деточкин оказывается непримиримым борцом за справедливость. Правда, для правосудия, представляемого актером того же театра, а в миру - следователем Подберезовиковым, этот Робин Гуд представляется опасным, хитроумным, изобретательным и неуловимым преступником...

Выпущено: СССР, «Мосфильм»
Продолжительность: 01:28:34
Перевод: Не требуется
Файл
Формат: MKV
Качество: HDTVRip-AVC
Видео: MPEG-4 AVC, 752x424, ~ 1110 Кбит/с
Аудио: AAC-LC, 2 ch, ~ 76 Кбит/с
Общее
Уникальный идентификатор : 224495095530918055180822935153724621790 (0xA8E42EC4737F4333B66B4D7973A003DE)
Полное имя : D:MOVIESBeregis.avtomobilya.1966.ExKinoRay.mkv
Формат : Matroska
Версия формата : Version 2
Размер файла : 747 Мбайт
Продолжительность : 1 ч. 28 м.
Общий поток : 1178 Кбит/сек
Дата кодирования : UTC 2017-11-19 00:30:49
Программа кодирования : mkvmerge v17.0.0 ('Be Ur Friend') 64-bit
Библиотека кодирования : libebml v1.3.5 + libmatroska v1.4.8
Видео
Идентификатор : 1
Формат : AVC
Формат/Информация : Advanced Video Codec
Профиль формата : [email protected]
Параметр CABAC формата : Да
Параметр RefFrames формата : 10 кадров
Идентификатор кодека : V_MPEG4/ISO/AVC
Продолжительность : 1 ч. 28 м.
Битрейт : 1100 Кбит/сек
Ширина : 752 пикселя
Высота : 424 пикселя
Соотношение сторон : 16:9
Режим частоты кадров : Постоянный
Частота кадров : 25,000 кадров/сек
Цветовое пространство : YUV
Субдискретизация насыщенности : 4:2:0
Битовая глубина : 8 бит
Тип развёртки : Прогрессивная
Бит/(Пиксели*Кадры) : 0.138
Размер потока : 697 Мбайт (93%)
Библиотека кодирования : x264 core 152 r2851kMod ba24899
Настройки программы : cabac=1 / ref=10 / deblock=1:-2:-2 / analyse=0x3:0x133 / me=umh / subme=11 / psy=1 / fade_compensate=0.00 / psy_rd=1.00:0.08 / mixed_ref=1 / me_range=32 / chroma_me=1 / trellis=2 / 8x8dct=1 / cqm=0 / deadzone=21,11 / fast_pskip=0 / chroma_qp_offset=-3 / threads=6 / lookahead_threads=1 / sliced_threads=0 / nr=0 / decimate=0 / interlaced=0 / bluray_compat=0 / constrained_intra=0 / bframes=10 / b_pyramid=2 / b_adapt=2 / b_bias=0 / direct=3 / weightb=1 / open_gop=0 / weightp=2 / keyint=250 / keyint_min=24 / scenecut=40 / intra_refresh=0 / rc_lookahead=40 / rc=2pass / mbtree=1 / bitrate=1100 / ratetol=1.0 / qcomp=0.60 / qpmin=0 / qpmax=69 / qpstep=4 / cplxblur=20.0 / qblur=0.5 / vbv_maxrate=50000 / vbv_bufsize=62500 / nal_hrd=none / filler=0 / ip_ratio=1.40 / aq=3:1.00
Default : Да
Forced : Нет
Аудио
Идентификатор : 2
Формат : AAC
Формат/Информация : Advanced Audio Codec
Профиль формата : LC
Идентификатор кодека : A_AAC
Продолжительность : 1 ч. 28 м.
Битрейт : 76,0 Кбит/сек
Каналы : 2 канала
Расположение каналов : Front: L R
Частота : 48,0 КГц
Частота кадров : 46,875 кадров/сек (1024 SPF)
Метод сжатия : С потерями
Задержка видео : 9 мс.
Размер потока : 48,2 Мбайт (6%)
Язык : Russian
Default : Да
Forced : Нет


Релиз от:



   Похожие торренты   Торрент   Размер 
В этой теме нет новых непрочитанных сообщений. Берегись автомобиля (1966) HDTVRip от ExKinoRay | Цветная версия

12 | 0

744.55 МБ

В этой теме нет новых непрочитанных сообщений. Берегись автомобиля (1966) WEBRip-AVC от ExKinoRay | Цветная версия

20 | 0

2.21 ГБ

В этой теме нет новых непрочитанных сообщений. Берегись автомобиля (Цветная версия) (1966) HDTVRip-AVC от Files-x

16 | 1

1.37 ГБ

В этой теме нет новых непрочитанных сообщений. Берегись автомобиля (Цветная версия) (1966) HDTVRip от GeneralFilm

26 | 0

1.24 ГБ

В этой теме нет новых непрочитанных сообщений. Берегись автомобиля (1966) HDTVRip от GeneralFilm | Цветная версия

7 | 1

746.06 МБ

В этой теме нет новых непрочитанных сообщений. Берегись автомобиля (Цветная версия) (1966) HDTVRip 720p от GeneralFilm

41 | 1

2.29 ГБ

В этой теме нет новых непрочитанных сообщений. Берегись автомобиля (1966) WEBRip 1080p | Цветная версия

48 | 1

3.51 ГБ




Вы не можете начинать темы
Вы не можете отвечать на сообщения
Вы не можете редактировать свои сообщения
Вы не можете удалять свои сообщения
Вы не можете добавлять вложения

Перейти:  
Для Мосгорсуда, Роскомнадзора и рекламодателей: mosgorsud-torrent[собачка]yandex.ru
 Вход
ppkBB3cker v.2 © 2008-2014 @ PPK
[ Time : 0.050s | 19 Queries | GZIP : Off ]

cron