img image001 image001 image001 image001 image001 image001 image001 image001 image001 image001 image001 image001 image001 image001 image001

Planets Sun Sun Sun
Статистика раздачи
Автор: Nickolas3434 | Размер: 1.45 ГБ | Добавлен: 17 ноя 2017
Раздают: 16    Качают: 1
Скачать торрент
Скачать торрент
Описание торрента

СообщениеДобавлено: 17 ноя 2017 




Информация о фильме
Оригинальное название: Свадьба в Малиновке
Год выхода: 1967
Жанр: мюзикл, комедия
Режиссер: Андрей Тутышкин
В ролях: Владимир Самойлов, Людмила Алфимова, Валентина Лысенко, Евгений Лебедев, Зоя Фёдорова, Гелий Сысоев, Михаил Пуговкин, Николай Сличенко, Андрей Абрикосов, Григорий Абрикосов, Михаил Водяной, Тамара Носова, Эмма Трейвас, Алексей Смирнов, Маргарита Криницына, Александр Орлов, Юрий Шепелев, Любовь Тищенко, Александр Захаров, Раиса Пироженко, Алексей Захаров, Николай Пишванов, Лев Степанов, Валентина Николаенко
О фильме:
Идет гражданская воина. В украинской деревне то и дело меняется власть. Чтобы разделаться с бандой головорезов, красный командир уговаривает девушку Яринку разыграть ее свадьбу с атаманом...

Выпущено: СССР
Продолжительность: 01:32:19
Перевод: Оригинал
Файл
Кодек: x264
Качество: BDRip-AVC [Blu-Ray 1080p]
Видео: 960x408, ~1800 Kbps, 23.976 fps
Аудио: AC-3, 6 ch, 448kbps
Субтитры: нет


General
Unique ID : 337357405349481395469964702219287119912 (0xFDCCAC42AC0C13793A3BC11BDAB7C828)
Complete name : D:Свадьба в Малиновке.(1967).BDRIP-AVC.[-=DoMiNo=-].mkv
Format : Matroska
Format version : Version 4 / Version 2
File size : 1.45 GiB
Duration : 1 h 32 min
Overall bit rate : 2 251 kb/s
Movie name : Свадьба в Малиновке
Deion : Идет гражданская воина. В украинской деревне то и дело меняется власть. Чтобы разделаться с бандой головорезов, красный командир уговаривает девушку Яринку разыграть ее свадьбу с атаманом...
Writing application : XviD4PSP 7.0.423 DAILY
Writing library : Lavf57.71.100
ErrorDetectionType : Per level 1
Attachments : poster.jpg
ACTORS : Владимир Самойлов, Людмила Алфимова, Валентина Николаенко, Евгений Лебедев, Зоя Фёдорова, Гелий Сысоев, Михаил Пуговкин, Николай Сличенко, Андрей Абрикосов, Григорий Абрикосов, Михаил Водяной, Тамара Носова, Эмма Трейвас, Алексей Смирнов, Н. Коган, Маргарита Криницына, Б. Морено, Александр Орлов, Юрий Шепелев, Любовь Тищенко, Раиса Пироженко, Александр Захаров, Николай Пишванов, Лев Степанов
COMPOSER : Борис Александров
COUNTRY : СССР
DATE : 1967
DIRECTOR : Андрей Тутышкин
ENCODING_INFO : BluRay > MKV Произвольный / H264 > X264 VBR-2P 1800kbps Произвольный / AC3 > COPY Безопасное
GENRE : мюзикл, комедия, военный
HD_VIDEO : 1
IMDB_RATING : 7.60
ITUNEXTC : ru-movie|12+|200|
Language : und
MEDIA_TYPE : 9
PRODUCER : Г. Диденко
RATING : 8.046
WRITER : Борис Александров, Леонид Юхвид
Video
ID : 1
Format : AVC
Format/Info : Advanced Video Codec
Format profile : [email protected]
Format settings : CABAC / 11 Ref Frames
Format settings, CABAC : Yes
Format settings, ReFrames : 11 frames
Codec ID : V_MPEG4/ISO/AVC
Duration : 1 h 32 min
Bit rate : 1 800 kb/s
Width : 960 pixels
Height : 408 pixels
Display aspect ratio : 2.35:1
Frame rate mode : Constant
Frame rate : 23.976 (24000/1001) FPS
Color space : YUV
Chroma subsampling : 4:2:0
Bit depth : 8 bits
Scan type : Progressive
Bits/(Pixel*Frame) : 0.192
Stream size : 1.13 GiB (78%)
Title : RIP_BY_-=DoMiNo=-
Writing library : x264 core 152 r2851M ba24899
Encoding settings : cabac=1 / ref=11 / deblock=1:-3:-3 / analyse=0x3:0x133 / me=umh / subme=11 / psy=1 / psy_rd=1.05:0.15 / mixed_ref=1 / me_range=48 / chroma_me=1 / trellis=2 / 8x8dct=1 / cqm=0 / deadzone=21,11 / fast_pskip=1 / chroma_qp_offset=-3 / threads=5 / lookahead_threads=1 / sliced_threads=0 / nr=0 / decimate=1 / interlaced=0 / bluray_compat=0 / constrained_intra=0 / bframes=12 / b_pyramid=2 / b_adapt=2 / b_bias=0 / direct=3 / weightb=1 / open_gop=0 / weightp=2 / keyint=240 / keyint_min=24 / scenecut=40 / intra_refresh=0 / rc_lookahead=60 / rc=2pass / mbtree=1 / bitrate=1800 / ratetol=1.0 / qcomp=0.65 / qpmin=0 / qpmax=69 / qpstep=4 / cplxblur=20.0 / qblur=0.5 / ip_ratio=1.40 / aq=1:1.00
Default : Yes
Forced : No
Color range : Limited
Color primaries : BT.709
Transfer characteristics : BT.709
Matrix coefficients : BT.709
Audio
ID : 2
Format : AC-3
Format/Info : Audio Coding 3
Codec ID : A_AC3
Duration : 1 h 32 min
Bit rate mode : Constant
Bit rate : 448 kb/s
Channel(s) : 6 channels
Channel positions : Front: L C R, Side: L R, LFE
Sampling rate : 48.0 kHz
Frame rate : 31.250 FPS (1536 SPF)
Bit depth : 16 bits
Compression mode : Lossy
Stream size : 296 MiB (20%)
Language : Russian
Service kind : Complete Main
Default : Yes
Forced : No
Menu
00:00:00.000 : :Глава 1
00:07:54.807 : :Глава 2
00:13:37.942 : :Глава 3
00:21:39.298 : :Глава 4
00:32:16.935 : :Глава 5
00:36:33.566 : :Глава 6
00:45:03.659 : :Глава 7
00:49:36.682 : :Глава 8
00:53:58.443 : :Глава 9
01:00:59.197 : :Глава 10
01:05:12.658 : :Глава 11
01:11:36.417 : :Глава 12
01:15:28.524 : :Глава 13
01:22:51.216 : :Глава 14
01:29:34.994 : :Глава 15
01:32:18.658 : :Глава 16





   Похожие торренты   Торрент   Размер 
В этой теме нет новых непрочитанных сообщений. Свадьба в Малиновке (1967) BDRip-AVC

45 | 0

2.18 ГБ

В этой теме нет новых непрочитанных сообщений. Свадьба в Малиновке (1967) BDRip-AVC от DHT-Movies

82 | 9

2.6 ГБ

В этой теме нет новых непрочитанных сообщений. Свадьба в Малиновке (1967) BDRip от HQ-ViDEO

625 | 29

1.46 ГБ

В этой теме нет новых непрочитанных сообщений. Свадьба в Малиновке (1967) BDRip от Youtracker

181 | 13

745.18 МБ

В этой теме нет новых непрочитанных сообщений. Свадьба в Малиновке (1967) BDRip-AVC от FireBit

7 | 11

1.37 ГБ

В этой теме нет новых непрочитанных сообщений. Свадьба в Малиновке (1967) BDRip от HELLYWOOD

48 | 8

1.45 ГБ

В этой теме нет новых непрочитанных сообщений. Свадьба в Малиновке (1967) BDRip от HQCLUB

155 | 20

1.45 ГБ




Вы не можете начинать темы
Вы не можете отвечать на сообщения
Вы не можете редактировать свои сообщения
Вы не можете удалять свои сообщения
Вы не можете добавлять вложения

Перейти:  
Для Мосгорсуда, Роскомнадзора и рекламодателей: mosgorsud-torrent[собачка]yandex.ru
 Вход
ppkBB3cker v.2 © 2008-2014 @ PPK
[ Time : 0.034s | 20 Queries | GZIP : Off ]

cron