img image001 image001 image001 image001 image001 image001 image001 image001 image001 image001 image001 image001 image001 image001 image001

Planets Sun Sun Sun
Статистика раздачи
Автор: Nickolas3434 | Размер: 745.27 МБ | Добавлен: 16 ноя 2017
Раздают: 20    Качают: 0
Скачать торрент
Скачать торрент
Описание торрента

СообщениеДобавлено: 16 ноя 2017 


Мы "В КОНТАКТЕ"


Страна: СССР
Производство: Мосфильм
Жанр: сказка
Год выпуска: 1959
Продолжительность: 01:06:50
Перевод: Не требуется
Cубтитры: нет
Оригинальная аудиодорожка: русский
Режиссер: Алексей Сахаров, Эльдар Шенгелая
В ролях:
Игорь Ершов, Алла Кожокина, Клара Лучко, Зинаида Нарышкина, Вера Алтайская, Евгений Леонов, Николай Сергеев, Михаил Пуговкин...
Об актёрах подробней
Описание:
Действие происходит 31 декабря. В деревне, недалеко от города Синеярска, жил обыкновенный мальчик Митя. Утром в последний день старого года он слепил из снега девочку Лелю и привел ее в школу. По дороге мальчик заметил, что часы с его руки куда-то исчезли. Вскоре в школе появился злой старик — Старый год (Евгений Леонов), который не хочет уступать место Новому. Он стал искать волшебные часы, чтобы остановить время...





Источник: DVD5 R5
Качество видео: DVDRip
Формат видео: AVI
Видео: 640x480 (4:3), 25 fps, XviD ~ 1421 kbps avg, 0.185 bit/pixel
Аудио: 48 kHz, MP3 2.0, 128 kbps
Раздача от:
Общее
Полное имя : Snezhnaya.skazka.1959.DVDRip-745_[New-team]_by_AVP_Studio.avi
Формат : AVI
Формат/Информация : Audio Video Interleave
Размер файла : 745 Мбайт
Продолжительность : 1 ч. 6 м.
Общий поток : 1559 Кбит/сек
Программа кодирования : VirtualDubMod 1.5.10.3 | www.virtualdub-fr.org || (build 2550/release)
Библиотека кодирования : VirtualDubMod build 2550/release
Видео
Идентификатор : 0
Формат : MPEG-4 Visual
Профиль формата : Advanced [email protected]
Параметр BVOP формата : 1
Параметр QPel формата : Нет
Параметр GMC формата : Без точки перехода
Параметр матрицы формата : Выборочная
Идентификатор кодека : XVID
Идентификатор кодека/Подсказка : XviD
Продолжительность : 1 ч. 6 м.
Битрейт : 1421 Кбит/сек
Ширина : 640 пикселей
Высота : 480 пикселей
Соотношение сторон : 4:3
Частота кадров : 25,000 кадров/сек
Цветовое пространство : YUV
Субдискретизация насыщенности : 4:2:0
Битовая глубина : 8 бит
Тип развёртки : Прогрессивная
Метод сжатия : С потерями
Бит/(Пиксели*Кадры) : 0.185
Размер потока : 679 Мбайт (91%)
Библиотека кодирования : XviD 73
Аудио
Идентификатор : 1
Формат : MPEG Audio
Версия формата : Version 1
Профиль формата : Layer 3
Идентификатор кодека : 55
Идентификатор кодека/Подсказка : MP3
Продолжительность : 1 ч. 6 м.
Вид битрейта : Постоянный
Битрейт : 128 Кбит/сек
Каналы : 2 канала
Частота : 48,0 КГц
Метод сжатия : С потерями
Размер потока : 61,2 Мбайт (8%)
Выравнивание : Соединение по промежуткам
Продолжительность промежутка : 40 мс. (1,00 видеокадр)
Время предзагрузки промежутка : 504 мс.
Библиотека кодирования : LAME3.99r
Настройки программы : -m s -V 4 -q 2 -lowpass 17 -b 128





   Похожие торренты   Торрент   Размер 
В этой теме нет новых непрочитанных сообщений. Снежная сказка (1959) DVDRip-AVC от New-Team

56 | 1

1.09 ГБ

В этой теме нет новых непрочитанных сообщений. Снежная сказка (1959) DVDRip от New-Team

1 | 0

1.09 ГБ

В этой теме нет новых непрочитанных сообщений. Снежная сказка (1959) DVDRip

39 | 12

1.09 ГБ

В этой теме нет новых непрочитанных сообщений. Снежная королева (1966) DVDRip от New-Team

439 | 35

1.46 ГБ

В этой теме нет новых непрочитанных сообщений. Сказка о царе Салтане (1984) DVDRip-AVC от New-Team

521 | 27

743.97 МБ

В этой теме нет новых непрочитанных сообщений. Сказка о царе Салтане (1984) DVDRip от New-Team

63 | 15

743.56 МБ

В этой теме нет новых непрочитанных сообщений. Жажда (1959) DVDRip-AVC от New-Team

49 | 4

1.09 ГБ




Вы не можете начинать темы
Вы не можете отвечать на сообщения
Вы не можете редактировать свои сообщения
Вы не можете удалять свои сообщения
Вы не можете добавлять вложения

Перейти:  
Для Мосгорсуда, Роскомнадзора и рекламодателей: mosgorsud-torrent[собачка]yandex.ru
 Вход
ppkBB3cker v.2 © 2008-2014 @ PPK
[ Time : 0.044s | 20 Queries | GZIP : Off ]

cron