img image001 image001 image001 image001 image001 image001 image001 image001 image001 image001 image001 image001 image001 image001 image001

Planets Sun Sun Sun
Статистика раздачи
Автор: Nickolas3434 | Размер: 1.09 ГБ | Добавлен: 16 ноя 2017
Раздают: 1    Качают: 0
Скачать торрент
Скачать торрент
Описание торрента

СообщениеДобавлено: 16 ноя 2017 


Мы "В КОНТАКТЕ"


Страна: СССР
Производство: Мосфильм
Жанр: сказка
Год выпуска: 1959
Продолжительность: 01:06:50
Перевод: Не требуется
Cубтитры: нет
Оригинальная аудиодорожка: русский
Режиссер: Алексей Сахаров, Эльдар Шенгелая
В ролях:
Игорь Ершов, Алла Кожокина, Клара Лучко, Зинаида Нарышкина, Вера Алтайская, Евгений Леонов, Николай Сергеев, Михаил Пуговкин...
Об актёрах подробней
Описание:
Действие происходит 31 декабря. В деревне, недалеко от города Синеярска, жил обыкновенный мальчик Митя. Утром в последний день старого года он слепил из снега девочку Лелю и привел ее в школу. По дороге мальчик заметил, что часы с его руки куда-то исчезли. Вскоре в школе появился злой старик — Старый год (Евгений Леонов), который не хочет уступать место Новому. Он стал искать волшебные часы, чтобы остановить время...





Источник: DVD5 R5
Качество видео: DVDRip
Формат видео: AVI
Видео: 720x544 (4:3), 25 fps, XviD ~ 2132 kbps avg, 0.218 bit/pixel
Аудио: 48 kHz, Dolby Digital AC3 2.0, 192 kbps
Раздача от:
Общее
Полное имя : Snezhnaya.skazka.1959.DVDRip_[New-team]_by_AVP_Studio.avi
Формат : AVI
Формат/Информация : Audio Video Interleave
Размер файла : 1,09 Гбайт
Продолжительность : 1 ч. 6 м.
Общий поток : 2334 Кбит/сек
Программа кодирования : VirtualDubMod 1.5.10.3 | www.virtualdub-fr.org || (build 2550/release)
Библиотека кодирования : VirtualDubMod build 2550/release
Видео
Идентификатор : 0
Формат : MPEG-4 Visual
Профиль формата : Advanced [email protected]
Параметр BVOP формата : 1
Параметр QPel формата : Нет
Параметр GMC формата : Без точки перехода
Параметр матрицы формата : Выборочная
Идентификатор кодека : XVID
Идентификатор кодека/Подсказка : XviD
Продолжительность : 1 ч. 6 м.
Битрейт : 2132 Кбит/сек
Ширина : 720 пикселей
Высота : 544 пикселя
Соотношение сторон : 4:3
Частота кадров : 25,000 кадров/сек
Цветовое пространство : YUV
Субдискретизация насыщенности : 4:2:0
Битовая глубина : 8 бит
Тип развёртки : Прогрессивная
Метод сжатия : С потерями
Бит/(Пиксели*Кадры) : 0.218
Размер потока : 1019 Мбайт (91%)
Библиотека кодирования : XviD 73
Аудио
Идентификатор : 1
Формат : AC-3
Формат/Информация : Audio Coding 3
Параметр Endianness формата : Big
Идентификатор кодека : 2000
Продолжительность : 1 ч. 6 м.
Вид битрейта : Постоянный
Битрейт : 192 Кбит/сек
Каналы : 2 канала
Расположение каналов : Front: L R
Частота : 48,0 КГц
Частота кадров : 31,250 кадров/сек (1536 SPF)
Битовая глубина : 16 бит
Метод сжатия : С потерями
Размер потока : 91,8 Мбайт (8%)
Выравнивание : Разделение по промежуткам
Продолжительность промежутка : 40 мс. (1,00 видеокадр)
Время предзагрузки промежутка : 500 мс





   Похожие торренты   Торрент   Размер 
В этой теме нет новых непрочитанных сообщений. Снежная сказка (1959) DVDRip от New-Team

20 | 0

745.27 МБ

В этой теме нет новых непрочитанных сообщений. Снежная сказка (1959) DVDRip-AVC от New-Team

35 | 0

1.09 ГБ

В этой теме нет новых непрочитанных сообщений. Снежная сказка (1959) DVDRip

39 | 12

1.09 ГБ

В этой теме нет новых непрочитанных сообщений. Снежная королева (1966) DVDRip от New-Team

439 | 35

1.46 ГБ

В этой теме нет новых непрочитанных сообщений. Сказка о царе Салтане (1984) DVDRip-AVC от New-Team

521 | 27

743.97 МБ

В этой теме нет новых непрочитанных сообщений. Сказка о царе Салтане (1984) DVDRip от New-Team

63 | 15

743.56 МБ

В этой теме нет новых непрочитанных сообщений. Жажда (1959) DVDRip-AVC от New-Team

49 | 4

1.09 ГБ




Вы не можете начинать темы
Вы не можете отвечать на сообщения
Вы не можете редактировать свои сообщения
Вы не можете удалять свои сообщения
Вы не можете добавлять вложения

Перейти:  
Для Мосгорсуда, Роскомнадзора и рекламодателей: mosgorsud-torrent[собачка]yandex.ru
 Вход
ppkBB3cker v.2 © 2008-2014 @ PPK
[ Time : 0.031s | 17 Queries | GZIP : Off ]

cron