img image001 image001 image001 image001 image001 image001 image001 image001 image001 image001 image001 image001 image001 image001 image001

Planets Sun Sun Sun
Статистика раздачи
Автор: Nickolas3434 | Размер: 3.43 ГБ | Добавлен: 13 ноя 2017
Раздают: 20    Качают: 3
Скачать торрент
Скачать торрент
Описание торрента

СообщениеДобавлено: 13 ноя 2017 

Живые и мертвые

Жанр: Военный, история, драма, экранизация
Год выхода: 1963
Режиссер: Александр Столпер
В ролях: Олег Ефремов, Анатолий Папанов, Михаил Глузский, Кирилл Лавров, Михаил Ульянов, Виктор Авдюшко, Евгений Самойлов, Алексей Глазырин, Лев Любецкий, Людмила Крылова, Людмила Любимова, Василий Макаров, Роман Хомятов, Зиновий Высоковский, Игорь Пушкарёв, Владлен Паулус, Борис Чирков, Олег Табаков, Лев Круглый, Владимир Горелов, Владимир Кулик, Юрий Волков, Евгений Шутов, Раиса Куркина, Софья Павлова, Борис Ардов, Римма Маркова, Любовь Соколова, Владимир Высоцкий, Алла Будницкая, Арина Алейникова
О фильме: Это кинокартина, есть знаменитая экранизация романа К. Симонова «о сорок первом страшном и героическом годе». Это одна из первых попыток сказать правду. Режиссер стремится воссоздать время в его максимальной подлинности - здесь и неразбериха первых дней войны, и отчаяние, и готовность погибнуть за родину. В 1963 К. Симонов вместе с режиссером А. Столпером смогли сказать многое из того, что характерно для первых дней войны: о приспособленцах и негодяях, о мужественных и честных людях, для которых предписание - не последний закон. Близость смерти проверяет личность и открывает в ней даже то, о чем человек мог раньше и не подозревать.Именно люди в экстремальной ситуации оказываются в центре внимания создателей фильма.
Выпущено: СССР
Продолжительность: 01:32:44 + 01:34:23
Перевод: Не требуется

Кодек: х264
Качество: HDTVRip-AVC
Видео: MPEG-4 AVC, 1024х448, 25.00fps, 2400 Kbps
Аудио: AC3 2.0 @ 224 Kbps


x264 [info]: frame I:678 Avg QP:16.21 size: 81791 1 серия
x264 [info]: frame P:32320 Avg QP:19.70 size: 27385
x264 [info]: frame B:106169 Avg QP:20.66 size: 6872
Общее
Уникальный идентификатор : 205153550873157262492949435738312008325 (0x9A5722FD9E1EF332AFA1F80C0015E285)
Полное имя : E:Мои рипыживые и мертвые-1963_HDTV-AVC_KORSARживые и мертвые-1-1963_HDTV-AVC_KORSAR.mkv
Формат : Matroska
Версия формата : Version 2
Размер файла : 1,70 Гбайт
Продолжительность : 1 ч. 32 м.
Общий поток : 2626 Кбит/сек
Дата кодирования : UTC 2017-11-10 23:46:39
Программа кодирования : mkvmerge v5.8.0 ('No Sleep / Pillow') built on Sep 2 2012 15:37:04
Библиотека кодирования : libebml v1.2.3 + libmatroska v1.3.0
Видео
Идентификатор : 1
Формат : AVC
Формат/Информация : Advanced Video Codec
Профиль формата : [email protected]
Настройки формата : CABAC / 16 Ref Frames
Параметр CABAC формата : Да
Параметр RefFrames формата : 16 кадров
Идентификатор кодека : V_MPEG4/ISO/AVC
Продолжительность : 1 ч. 32 м.
Битрейт : 2400 Кбит/сек
Ширина : 1024 пикселя
Высота : 448 пикселей
Соотношение сторон : 2,25:1
Режим частоты кадров : Постоянный
Частота кадров : 25,000 кадров/сек
Цветовое пространство : YUV
Субдискретизация насыщенности : 4:2:0
Битовая глубина : 8 бит
Тип развёртки : Прогрессивная
Бит/(Пиксели*Кадры) : 0.209
Размер потока : 1,52 Гбайт (89%)
Библиотека кодирования : x264 core 152 r2851kMod ba24899
Настройки программы : cabac=1 / ref=16 / deblock=1:-2:-1 / analyse=0x3:0x113 / me=umh / subme=11 / psy=1 / fade_compensate=0.00 / psy_rd=1.05:0.10 / mixed_ref=1 / me_range=48 / chroma_me=1 / trellis=2 / 8x8dct=1 / cqm=0 / deadzone=21,11 / fast_pskip=0 / chroma_qp_offset=-3 / threads=12 / lookahead_threads=3 / sliced_threads=0 / nr=0 / decimate=0 / interlaced=0 / bluray_compat=0 / constrained_intra=0 / bframes=11 / b_pyramid=2 / b_adapt=2 / b_bias=0 / direct=3 / weightb=1 / open_gop=0 / weightp=2 / keyint=250 / keyint_min=25 / scenecut=40 / intra_refresh=0 / rc_lookahead=40 / rc=2pass / mbtree=0 / bitrate=2400 / ratetol=1.0 / qcomp=0.60 / qpmin=0 / qpmax=39 / qpstep=4 / cplxblur=20.0 / qblur=0.5 / vbv_maxrate=50000 / vbv_bufsize=62500 / nal_hrd=none / filler=0 / ip_ratio=1.40 / pb_ratio=1.30 / aq=1:1.00
Язык : English
Default : Да
Forced : Нет
Цветовой диапазон : Limited
Основные цвета : BT.601 PAL
Характеристики трансфера : BT.470 System B, BT.470 System G
Коэффициенты матрицы : BT.470 System B, BT.470 System G
Аудио
Идентификатор : 2
Формат : AC-3
Формат/Информация : Audio Coding 3
Параметр Endianness формата : Big
Идентификатор кодека : A_AC3
Продолжительность : 1 ч. 32 м.
Вид битрейта : Постоянный
Битрейт : 224 Кбит/сек
Каналы : 2 канала
Расположение каналов : Front: L R
Частота : 48,0 КГц
Частота кадров : 31,250 кадров/сек (1536 SPF)
Битовая глубина : 16 бит
Метод сжатия : С потерями
Размер потока : 149 Мбайт (9%)
Default : Да
Forced : Нет


x264 [info]: frame I:644 Avg QP:15.83 size: 78493 2 серия
x264 [info]: frame P:29776 Avg QP:19.41 size: 27943
x264 [info]: frame B:111227 Avg QP:20.15 size: 7346
Общее
Уникальный идентификатор : 202944334296142033825102066713429507994 (0x98ADA834328130AA8E9A5DF5C73F7F9A)
Полное имя : E:Мои рипыживые и мертвые-1963_HDTV-AVC_KORSARживые и мертвые-2-1963_HDTV-AVC_KORSAR.mkv
Формат : Matroska
Версия формата : Version 2
Размер файла : 1,73 Гбайт
Продолжительность : 1 ч. 34 м.
Общий поток : 2626 Кбит/сек
Дата кодирования : UTC 2017-11-10 23:53:54
Программа кодирования : mkvmerge v5.8.0 ('No Sleep / Pillow') built on Sep 2 2012 15:37:04
Библиотека кодирования : libebml v1.2.3 + libmatroska v1.3.0
Видео
Идентификатор : 1
Формат : AVC
Формат/Информация : Advanced Video Codec
Профиль формата : [email protected]
Настройки формата : CABAC / 16 Ref Frames
Параметр CABAC формата : Да
Параметр RefFrames формата : 16 кадров
Идентификатор кодека : V_MPEG4/ISO/AVC
Продолжительность : 1 ч. 34 м.
Битрейт : 2400 Кбит/сек
Ширина : 1024 пикселя
Высота : 448 пикселей
Соотношение сторон : 2,25:1
Режим частоты кадров : Постоянный
Частота кадров : 25,000 кадров/сек
Цветовое пространство : YUV
Субдискретизация насыщенности : 4:2:0
Битовая глубина : 8 бит
Тип развёртки : Прогрессивная
Бит/(Пиксели*Кадры) : 0.209
Размер потока : 1,55 Гбайт (89%)
Библиотека кодирования : x264 core 152 r2851kMod ba24899
Настройки программы : cabac=1 / ref=16 / deblock=1:-2:-1 / analyse=0x3:0x113 / me=umh / subme=11 / psy=1 / fade_compensate=0.00 / psy_rd=1.05:0.10 / mixed_ref=1 / me_range=48 / chroma_me=1 / trellis=2 / 8x8dct=1 / cqm=0 / deadzone=21,11 / fast_pskip=0 / chroma_qp_offset=-3 / threads=12 / lookahead_threads=3 / sliced_threads=0 / nr=0 / decimate=0 / interlaced=0 / bluray_compat=0 / constrained_intra=0 / bframes=11 / b_pyramid=2 / b_adapt=2 / b_bias=0 / direct=3 / weightb=1 / open_gop=0 / weightp=2 / keyint=250 / keyint_min=25 / scenecut=40 / intra_refresh=0 / rc_lookahead=40 / rc=2pass / mbtree=0 / bitrate=2400 / ratetol=1.0 / qcomp=0.60 / qpmin=0 / qpmax=39 / qpstep=4 / cplxblur=20.0 / qblur=0.5 / vbv_maxrate=50000 / vbv_bufsize=62500 / nal_hrd=none / filler=0 / ip_ratio=1.40 / pb_ratio=1.30 / aq=1:1.00
Язык : English
Default : Да
Forced : Нет
Цветовой диапазон : Limited
Основные цвета : BT.601 PAL
Характеристики трансфера : BT.470 System B, BT.470 System G
Коэффициенты матрицы : BT.470 System B, BT.470 System G
Аудио
Идентификатор : 2
Формат : AC-3
Формат/Информация : Audio Coding 3
Параметр Endianness формата : Big
Идентификатор кодека : A_AC3
Продолжительность : 1 ч. 34 м.
Вид битрейта : Постоянный
Битрейт : 224 Кбит/сек
Каналы : 2 канала
Расположение каналов : Front: L R
Частота : 48,0 КГц
Частота кадров : 31,250 кадров/сек (1536 SPF)
Битовая глубина : 16 бит
Метод сжатия : С потерями
Default : Да
Forced : Нет




   Похожие торренты   Торрент   Размер 
В этой теме нет новых непрочитанных сообщений. Живые и Мёртвые (1963) HDTVRip-AVC от KORSAR | Широкоэкранная версия

0 | 0

3.43 ГБ

В этой теме нет новых непрочитанных сообщений. Три плюс два (Широкоэкранная полная версия) (1963) HDTVRip от GeneralFilm

601 | 30

1.33 ГБ

В этой теме нет новых непрочитанных сообщений. Живые и Мёртвые (1963) DVDRip от Youtracker

13 | 6

2.18 ГБ

В этой теме нет новых непрочитанных сообщений. Живые и Мёртвые (1963) DVDRip от Youtracker

70 | 16

1.45 ГБ

В этой теме нет новых непрочитанных сообщений. Живые и Мёртвые (1963) DVDRip-AVC от Youtracker

261 | 17

2.18 ГБ

В этой теме нет новых непрочитанных сообщений. Три плюс два (1963) BDRip | Широкоэкранная версия

168 | 5

1.46 ГБ

В этой теме нет новых непрочитанных сообщений. Три плюс два (1963) BDRip от HQCLUB | Широкоэкранная версия

262 | 25

1.45 ГБ




Вы не можете начинать темы
Вы не можете отвечать на сообщения
Вы не можете редактировать свои сообщения
Вы не можете удалять свои сообщения
Вы не можете добавлять вложения

Перейти:  
Для Мосгорсуда, Роскомнадзора и рекламодателей: mosgorsud-torrent[собачка]yandex.ru
 Вход
ppkBB3cker v.2 © 2008-2014 @ PPK
[ Time : 0.065s | 17 Queries | GZIP : Off ]

cron