img image001 image001 image001 image001 image001 image001 image001 image001 image001 image001 image001 image001 image001 image001 image001

Planets Sun Sun Sun
Статистика раздачи
Автор: Nickolas3434 | Размер: 4.77 ГБ | Добавлен: 09 окт 2017
Раздают: 251    Качают: 2
Скачать торрент
Скачать торрент
Описание торрента

СообщениеДобавлено: 09 окт 2017 

Информация о фильме
Название: Вурдалаки
Год выхода: 2017
Жанр: Триллер
Режиссер: Сергей Гинзбург
В ролях: Михаил Пореченков, Константин Крюков, Аглая Шиловская, Андрей Руденский, Михаил Жигалов, Игорь Хрипунов, Анатолий Гущин, Константин Милованов, Анна Арланова, Юлия Ауг
О фильме: Россия, 18 век. На краю Руси, в Карпатских горах, стоит Спасский монастырь, куда был сослан духовник императрицы Елизаветы монах Лавр. Какие тайны он унес с собой из столичного Петербурга, никто не ведал. Да и край, в который он был сослан, издревле считался неспокойным, о нем слагали легенды и рассказывали их только шепотом. Говорили мол, что в тех краях живет нечистая сила, оставшаяся там еще со времен набегов турецких...
Спустя годы за Лавром из Петербурга прибывает Андрей, крестник самой императрицы Елизаветы. В Карпатах Андрей сталкивается со странным, пугающим и необычным, что не в состоянии объяснить его рациональный разум. А еще он встречает настоящую любовь, ради которой вступает в схватку со сверхъестественным злом.


Страна: Россия
Студия: Горад, ВВП Альянс
Продолжительность: 01:21:54
Перевод: Не требуется (русский) | Лицензия
Файл
Формат: MKV
Качество: BDRip (1080p)
Видео: MPEG-4 AVC, 1920x802 (2.40:1), 23.976 fps, ~7122 kbps avg, 0.193 bit/pixel
Аудио 1: 48 kHz, AC3 Dolby Digital, 3/2 (L,C,R,l,r) + LFE ch, ~448.00 kbps avg
Аудио 2: DTS, 48 kHz, 6 ch, ~768.00 kbps avg
x264 [info]: frame I:825 Avg QP:12.50 size:213763
x264 [info]: frame P:37617 Avg QP:16.42 size: 66775
x264 [info]: frame B:79389 Avg QP:18.30 size: 21235
__________________________________________________________
General
Unique ID : 206373710520506263598814698367456953706 (0x9B4221818539953CAF8FB750FB54C56A)
Complete name : D:Vurdalaki.2017.BDRip.1080p.ExKinoRay.mkv
Format : Matroska
Format version : Version 2
File size : 4.77 GiB
Duration : 1 h 21 min
Overall bit rate : 8 339 kb/s
Movie name : Вурдалаки (2017) from ExKinoRay
Encoded date : UTC 2017-10-07 23:59:33
Writing application : mkvmerge v5.6.0 ('Kenya Kane') built on May 27 2012 16:44:04
Writing library : libebml v1.2.3 + libmatroska v1.3.0
Video
ID : 1
Format : AVC
Format/Info : Advanced Video Codec
Format profile : [email protected]
Format settings, CABAC : Yes
Format settings, ReFrames : 5 frames
Codec ID : V_MPEG4/ISO/AVC
Duration : 1 h 21 min
Bit rate : 7 122 kb/s
Width : 1 920 pixels
Height : 802 pixels
Display aspect ratio : 2.40:1
Frame rate mode : Constant
Frame rate : 23.976 (24000/1001) FPS
Color space : YUV
Chroma subsampling : 4:2:0
Bit depth : 8 bits
Scan type : Progressive
Bits/(Pixel*Frame) : 0.193
Stream size : 3.98 GiB (83%)
Title : Enigma
Writing library : x264 core 148 r2638 7599210
Encoding settings : cabac=1 / ref=5 / deblock=1:-2:-2 / analyse=0x3:0x113 / me=umh / subme=11 / psy=1 / psy_rd=1.00:0.05 / mixed_ref=1 / me_range=32 / chroma_me=1 / trellis=2 / 8x8dct=1 / cqm=0 / deadzone=21,11 / fast_pskip=1 / chroma_qp_offset=-3 / threads=12 / lookahead_threads=3 / sliced_threads=0 / nr=0 / decimate=0 / interlaced=0 / bluray_compat=0 / constrained_intra=0 / bframes=11 / b_pyramid=2 / b_adapt=2 / b_bias=0 / direct=3 / weightb=1 / open_gop=0 / weightp=2 / keyint=240 / keyint_min=23 / scenecut=40 / intra_refresh=0 / rc_lookahead=50 / rc=2pass / mbtree=0 / bitrate=7122 / ratetol=1.0 / qcomp=0.65 / qpmin=0 / qpmax=51 / qpstep=4 / cplxblur=20.0 / qblur=0.5 / vbv_maxrate=50000 / vbv_bufsize=62500 / nal_hrd=none / filler=0 / ip_ratio=1.40 / pb_ratio=1.30 / aq=1:0.90
Default : Yes
Forced : No
Audio #1
ID : 2
Format : AC-3
Format/Info : Audio Coding 3
Mode extension : CM (complete main)
Format settings, Endianness : Big
Codec ID : A_AC3
Duration : 1 h 21 min
Bit rate mode : Constant
Bit rate : 448 kb/s
Channel(s) : 6 channels
Channel positions : Front: L C R, Side: L R, LFE
Sampling rate : 48.0 kHz
Frame rate : 31.250 FPS (1536 spf)
Compression mode : Lossy
Stream size : 262 MiB (5%)
Language : Russian
Default : Yes
Forced : No
Audio #2
ID : 3
Format : DTS
Format/Info : Digital Theater Systems
Mode : 16
Format settings, Endianness : Big
Codec ID : A_DTS
Duration : 1 h 21 min
Bit rate mode : Constant
Bit rate : 768 kb/s
Channel(s) : 6 channels
Channel positions : Front: L C R, Side: L R, LFE
Sampling rate : 48.0 kHz
Frame rate : 93.750 FPS (512 spf)
Bit depth : 16 bits
Compression mode : Lossy
Stream size : 450 MiB (9%)
Language : Russian
Default : No
Forced : No
Menu
00:00:00.000 : :Chapter 01
00:02:52.088 : :Chapter 02
00:07:49.469 : :Chapter 03
00:14:20.401 : :Chapter 04
00:23:33.412 : :Chapter 05
00:32:06.382 : :Chapter 06
00:39:46.384 : :Chapter 07
00:44:49.311 : :Chapter 08
00:50:24.604 : :Chapter 09
01:00:24.829 : :Chapter 10
01:10:17.213 : :Chapter 11
01:19:49.367 : :Chapter 12
01:21:54.534 : :Chapter 13


Релиз от:
Автор релиза:



   Похожие торренты   Торрент   Размер 
В этой теме нет новых непрочитанных сообщений. Вурдалаки (2017) Blu-ray 1080p | GER Transfer | Лицензия

20 | 8

16.82 ГБ

В этой теме нет новых непрочитанных сообщений. Вурдалаки (2017) BDRip от HQCLUB | Лицензия

111 | 13

1.45 ГБ

В этой теме нет новых непрочитанных сообщений. Вурдалаки (2017) BDRip-AVC от New-Team | Лицензия

64 | 0

778.16 МБ

В этой теме нет новых непрочитанных сообщений. Вурдалаки (2017) BDRip-AVC от New-Team | Лицензия

49 | 1

1.44 ГБ

В этой теме нет новых непрочитанных сообщений. Вурдалаки (2017) BDRip-HEVC 1080p

44 | 2

2.8 ГБ

В этой теме нет новых непрочитанных сообщений. Вурдалаки (2017) BDRip 720p от Leonardo | Лицензия | GER Transfer

81 | 6

2.13 ГБ

В этой теме нет новых непрочитанных сообщений. Вурдалаки (2017) WEB-DLRip-AVC от ExKinoRay | iTunes

2232 | 31

1.46 ГБ




Вы не можете начинать темы
Вы не можете отвечать на сообщения
Вы не можете редактировать свои сообщения
Вы не можете удалять свои сообщения
Вы не можете добавлять вложения

Перейти:  
Для Мосгорсуда, Роскомнадзора и рекламодателей: mosgorsud-torrent[собачка]yandex.ru
 Вход
ppkBB3cker v.2 © 2008-2014 @ PPK
[ Time : 4.541s | 17 Queries | GZIP : Off ]

cron