img image001 image001 image001 image001 image001 image001 image001 image001 image001 image001 image001 image001 image001 image001 image001

Planets Sun Sun Sun
Статистика раздачи
Автор: Снежана | Размер: 745.02 МБ | Добавлен: 23 июл 2013
Раздают: 2    Качают: 4
Скачать торрент
Скачать торрент
Описание торрента

СообщениеДобавлено: 23 июл 2013 

#77


- Прорыв года, Лучший злодей

Страна: США / Morgan Creek Productions
Жанр: триллер, драма
Год выпуска: 1993
Продолжительность: 01:28:54
Перевод: Профессиональный (двухголосый, закадровый)

Слоган: «Её влюблённость может быть смертельно опасной»

Режиссер: Алан Шапиро / Alan Shapiro

В ролях: Кэри Элвис, Алисия Сильверстоун, Дженнифер Рубин, Кертвуд Смит, Эмбер Бенсон, Гвинет Уолш, Мэттью Уолкер, Дебора Хэнкок, Беверли Эллиотт, Эндрю Эйрли

О фильме: Жизнь Ника Элиота окончательно наладилась. Он получил отличную работу в популярном журнале, завязал романтические отношения с чудесной девушкой Эми и снял уютный домик у богатой супружеской четы в престижном квартале.

Когда же Ник познакомился с 14-летней дочерью хозяев Эдриан, она буквально очаровала молодого журналиста своей красотой, умом и формами. А Эдриан просто обезумела от страсти к Нику.

Но, не встретив взаимности, благовоспитанный подросток быстро превратился в одержимую ревностью мстительницу. Потому что Эдриан привыкла всегда получать все, что хочет. И если любимый не достанется ей, то не достанется никому…

Рейтинг MPAA:

Качество видео: HDTVRip
Формат видео: AVI

Видео: 656x368 (1.78:1), 23.976 fps, XviD build 65 ~1034 kbps avg, 0.18 bit/pixel
Звук: 48 kHz, MPEG Layer 3, 2 ch, ~128.00 kbps avg



General
Complete name : Увлечение.avi
Format : AVI
Format/Info : Audio Video Interleave
File size : 745 MiB
Duration : 1h 28mn
Overall bit rate : 1 172 Kbps
Writing application : VirtualDubMod 1.5.10.3 (build 2550/release)
Writing library : VirtualDubMod build 2550/release

Video
ID : 0
Format : MPEG-4 Visual
Format profile : Advanced [email protected]
Format settings, BVOP : 1
Format settings, QPel : No
Format settings, GMC : No warppoints
Format settings, Matrix : Custom
Codec ID : XVID
Codec ID/Hint : XviD
Duration : 1h 28mn
Bit rate : 1 034 Kbps
Width : 656 pixels
Height : 368 pixels
Display aspect ratio : 16:9
Frame rate : 23.976 fps
Color space : YUV
Chroma subsampling : 4:2:0
Bit depth : 8 bits
Scan type : Progressive
Compression mode : Lossy
Bits/(Pixel*Frame) : 0.179
Stream size : 658 MiB (88%)
Writing library : XviD 65

Audio
ID : 1
Format : MPEG Audio
Format version : Version 1
Format profile : Layer 3
Codec ID : 55
Codec ID/Hint : MP3
Duration : 1h 28mn
Bit rate mode : Constant
Bit rate : 128 Kbps
Channel(s) : 2 channels
Sampling rate : 48.0 KHz
Compression mode : Lossy
Stream size : 81.4 MiB (11%)
Alignment : Aligned on interleaves
Interleave, duration : 42 ms (1.00 video frame)
Interleave, preload duration : 504 ms
Writing library : LAME3.98r
Encoding settings : -m s -V 4 -q 2 -lowpass 17 -b 128





лицам, достигшим 16 лет



   Похожие торренты   Торрент   Размер 
В этой теме нет новых непрочитанных сообщений. Увлечение / Роковое увлечение / The Crush (1993) DVDRip

6 | 2

1.37 ГБ

В этой теме нет новых непрочитанных сообщений. Увлечение / The Crush (1993) HDTVRip | P, А

50 | 18

1.7 ГБ

В этой теме нет новых непрочитанных сообщений. Увлечение / The Crush (1993) HDTVRip 720p

8 | 1

3.04 ГБ

В этой теме нет новых непрочитанных сообщений. Увлечение / The Crush (1993) HDTVRip-AVC от olegek70

0 | 2

1.45 ГБ

В этой теме нет новых непрочитанных сообщений. Увлечение / The Crush (1993) HDTV 1080i | P, P1

31 | 27

6.81 ГБ

В этой теме нет новых непрочитанных сообщений. Увлечение / The Crush (1993) BDRip от Koenig | P, P2, A

2 | 0

2.09 ГБ

В этой теме нет новых непрочитанных сообщений. Увлечение / The Crush (1993) HDTV 1080i

0 | 2

6.7 ГБ




Вы не можете начинать темы
Вы не можете отвечать на сообщения
Вы не можете редактировать свои сообщения
Вы не можете удалять свои сообщения
Вы не можете добавлять вложения

Перейти:  
Для Мосгорсуда, Роскомнадзора и рекламодателей: mosgorsud-torrent[собачка]yandex.ru
 Вход
ppkBB3cker v.2 © 2008-2014 @ PPK
[ Time : 0.052s | 17 Queries | GZIP : Off ]

cron