img image001 image001 image001 image001 image001 image001 image001 image001 image001 image001 image001 image001 image001 image001 image001 image001
Planets Sun Sun Sun
Статистика раздачи
Автор: Nickolas3434 | Размер: 746.7 МБ | Добавлен: 22 янв 2018
Раздают: 0    Качают: 0
Скачать торрент
Скачать торрент
Описание торрента

СообщениеДобавлено: 22 янв 2018 

Информация о фильме
Название: Просто друзья
Оригинальное название: Just Friends
Год выхода: 2005
Жанр: Мелодрама, комедия, рождество
Режиссер: Роджер Камбл
В ролях: Райан Рейнольдс, Эми Смарт, Анна Фэрис, Крис Клейн, Крис Маркетт, Джакомо Белтрами, Фред Эвануик, Эми Матисио, Джули Хэгерти, Венди Андерсон, Бэрри Флэтмэн, Девин Бурант, Джейден Райан, Энни Бребнер, Майк О’Брайэн, Тай Олссон, Тодд Льюис, Джастин Кирби, Джеки Митчелл, Стивен Рут, Робин Данн, Тренна Китинг, Шэрон Баккер, Мария Арк, Джиллиан Уолчак, Стив Тогерсон, Каван Каннингэм, Эшли Скотт, Джоди Питерс, Саймон Чин, Дэйна Девон, Майкл Анса, Скай Брэндон, Келли МакДональд, Сэлли Крукс, Терри Эл, Джоан Спайрс, Джефф Руф, Ларри МакКормик
О фильме:
Лос-анджелесский музыкальный продюсер Крис Брэндер имеет все, что только можно пожелать, — деньги, приятную внешность и замечательную работу. Однако в жизни Криса не всегда все складывалось так гладко. В школе он был очень полным и от этого чересчур застенчивым. Единственное светлое воспоминание он сохранил о своей близкой подруге Джейми, в которую он был тайно и безнадежно влюблен. И вот по прошествии десяти лет, став неотразимым сердцеедом и преуспевающим продюсером, по пути в Париж Крис вынужден остановиться в родном для него Нью-Джерси. В местном баре Крис случайно встречает Джейми и понимает, что все еще любит ее. Однако завоевать сердце любимой девушки оказывается еще труднее, чем 10 лет назад.

Выпущено: Германия, США, Канада, BenderSpink, Cinerenta Medienbeteiligungs KG, Cinezeta, Inferno Distribution
Продолжительность: 01:34:16
Перевод: Дублированный (R5)
Файл
Кодек: H.264
Качество: BDRip (AVC)
Видео: MPEG-4 AVC, 961 Кбит/с, 720x408
Звук: Русский, английский (AAC, 2 ch, 72 Кбит/сс)
Субтитры: Русские, английские
Формат : Matroska
Версия формата : Version 4 / Version 2
Размер файла : 747 Мбайт
Продолжительность : 1 ч. 34 м.
Общий поток : 1107 Кбит/сек
Название фильма : Prosto.druzja.2005.x264.BDRip.AVC.ExKinoRay
Дата кодирования : UTC 2018-01-20 18:01:27
Программа кодирования : mkvmerge v17.0.0 ('Be Ur Friend') 64-bit
Библиотека кодирования : libebml v1.3.5 + libmatroska v1.4.8
Видео
Идентификатор : 1
Формат : AVC
Формат/Информация : Advanced Video Codec
Профиль формата : [email protected]
Настройки формата : CABAC / 10 Ref Frames
Параметр CABAC формата : Да
Параметр RefFrames формата : 10 кадров
Идентификатор кодека : V_MPEG4/ISO/AVC
Продолжительность : 1 ч. 34 м.
Битрейт : 961 Кбит/сек
Ширина : 720 пикселей
Высота : 408 пикселей
Соотношение сторон : 16:9
Режим частоты кадров : Постоянный
Частота кадров : 24,000 кадра/сек
Цветовое пространство : YUV
Субдискретизация насыщенности : 4:2:0
Битовая глубина : 8 бит
Тип развёртки : Прогрессивная
Бит/(Пиксели*Кадры) : 0.136
Размер потока : 647 Мбайт (87%)
Заголовок : ExKinoRay
Библиотека кодирования : x264 core 146 r2538 121396c
Настройки программы : cabac=1 / ref=10 / deblock=1:-2:-2 / analyse=0x3:0x113 / me=umh / subme=11 / psy=1 / psy_rd=1.00:0.00 / mixed_ref=1 / me_range=32 / chroma_me=0 / trellis=2 / 8x8dct=1 / cqm=0 / deadzone=21,11 / fast_pskip=0 / chroma_qp_offset=-3 / threads=6 / lookahead_threads=1 / sliced_threads=0 / nr=0 / decimate=0 / interlaced=0 / bluray_compat=0 / constrained_intra=0 / bframes=10 / b_pyramid=2 / b_adapt=2 / b_bias=0 / direct=3 / weightb=1 / open_gop=0 / weightp=2 / keyint=240 / keyint_min=23 / scenecut=40 / intra_refresh=0 / rc_lookahead=40 / rc=2pass / mbtree=0 / bitrate=961 / ratetol=1.0 / qcomp=0.60 / qpmin=0 / qpmax=51 / qpstep=4 / cplxblur=20.0 / qblur=0.5 / vbv_maxrate=50000 / vbv_bufsize=62500 / nal_hrd=none / filler=0 / ip_ratio=1.40 / pb_ratio=1.30 / aq=2:1.00
Язык : English
Default : Да
Forced : Нет
Аудио #1
Идентификатор : 2
Формат : AAC
Формат/Информация : Advanced Audio Codec
Профиль формата : LC
Идентификатор кодека : A_AAC-2
Продолжительность : 1 ч. 34 м.
Битрейт : 72,0 Кбит/сек
Каналы : 2 канала
Расположение каналов : Front: L R
Частота : 48,0 КГц
Частота кадров : 46,875 кадров/сек (1024 SPF)
Метод сжатия : С потерями
Задержка видео : 9 мс.
Размер потока : 48,5 Мбайт (6%)
Язык : Russian
Default : Да
Forced : Нет
Аудио #2
Идентификатор : 3
Формат : AAC
Формат/Информация : Advanced Audio Codec
Профиль формата : LC
Идентификатор кодека : A_AAC-2
Продолжительность : 1 ч. 34 м.
Битрейт : 72,0 Кбит/сек
Каналы : 2 канала
Расположение каналов : Front: L R
Частота : 48,0 КГц
Частота кадров : 46,875 кадров/сек (1024 SPF)
Метод сжатия : С потерями
Задержка видео : 9 мс.
Размер потока : 48,6 Мбайт (7%)
Язык : English
Default : Нет
Forced : Нет
Текст #1
Идентификатор : 4
Формат : UTF-8
Идентификатор кодека : S_TEXT/UTF8
Идентификатор кодека/Информация : UTF-8 Plain Text
Продолжительность : 1 ч. 27 м.
Битрейт : 109 бит/сек
ElementCount : 1523
Размер потока : 70,3 Кбайт (0%)
Язык : Russian
Default : Нет
Forced : Нет
Текст #2
Идентификатор : 5
Формат : UTF-8
Идентификатор кодека : S_TEXT/UTF8
Идентификатор кодека/Информация : UTF-8 Plain Text
Продолжительность : 1 ч. 33 м.
Битрейт : 81 бит/сек
ElementCount : 1758
Размер потока : 55,9 Кбайт (0%)
Язык : English
Default : Нет
Forced : Нет
Меню
00:00:00.000 : en:00:00:00.000
00:05:00.000 : en:00:05:00.000
00:10:00.000 : en:00:10:00.000
00:15:00.000 : en:00:15:00.000
00:20:00.000 : en:00:20:00.000
00:25:00.000 : en:00:25:00.000
00:30:00.000 : en:00:30:00.000
00:35:00.000 : en:00:35:00.000
00:40:00.000 : en:00:40:00.000
00:45:00.000 : en:00:45:00.000
00:50:00.000 : en:00:50:00.000
00:55:00.000 : en:00:55:00.000
01:00:00.000 : en:01:00:00.000
01:05:00.000 : en:01:05:00.000
01:10:00.000 : en:01:10:00.000
01:15:00.000 : en:01:15:00.000
01:20:00.000 : en:01:20:00.000
01:25:00.000 : en:01:25:00.000
01:30:00.000 : en:01:30:00.000


Релиз от:



   Похожие торренты   Торрент   Размер 
В этой теме нет новых непрочитанных сообщений. Просто друзья / Just Friends (2005) BDRip-AVC от ExKinoRay | D

11 | 3

2.31 ГБ

В этой теме нет новых непрочитанных сообщений. Просто друзья / Just Friends (2005) BDRip от HQCLUB

283 | 19

1.46 ГБ

В этой теме нет новых непрочитанных сообщений. Просто друзья / Just Friends (2005) BDRip от Rulya74

157 | 7

2.23 ГБ

В этой теме нет новых непрочитанных сообщений. Просто друзья / Just Friends (2005) BDRip от HQ-VIDEO

15 | 4

1.71 ГБ

В этой теме нет новых непрочитанных сообщений. Просто друзья / Just Friends (2005) BDRip 720p от NNNB | D

17 | 0

4.37 ГБ

В этой теме нет новых непрочитанных сообщений. Гэри Мур и друзья: Одна ночь в Дублине / Gary Moore & Friends: One Night In Dublin (2005) BDRip от HQ-ViDEO

56 | 5

1.45 ГБ

В этой теме нет новых непрочитанных сообщений. Настоящиe друзья / Друзья и любовники / Friends & Lovers (1999) DVDRip от vittrack

0 | 3

1.01 ГБ




Вы не можете начинать темы
Вы не можете отвечать на сообщения
Вы не можете редактировать свои сообщения
Вы не можете удалять свои сообщения
Вы не можете добавлять вложения

Перейти:  
Для Мосгорсуда, Роскомнадзора и рекламодателей: mosgorsud-torrent[собачка]yandex.ru
 Вход
ppkBB3cker v.2 © 2008-2014 @ PPK
[ Time : 0.045s | 19 Queries | GZIP : Off ]

cron