img image001 image001 image001 image001 image001 image001 image001 image001 image001 image001 image001 image001 image001 image001 image001 image001
Planets Sun Sun Sun
Статистика раздачи
Автор: Nickolas3434 | Размер: 2.69 ГБ | Добавлен: 22 янв 2018
Раздают: 4    Качают: 0
Скачать торрент
Скачать торрент
Описание торрента

СообщениеДобавлено: 22 янв 2018 

Информация о фильме
Наименование: Круги дьявола / Шакалы
Оригинальное наименование: Jackals
Произведено: США
Жанр: ужасы, триллер
Режиссер постановщик: Кевин Гротерт
В главных ролях: Стивен Дорфф, Дебора Кара Ангер, Джонатон Шек, Алисса Джулия Смит, Ник Ру, Джейсон Скотт Дженкинс, Кэсси Эрнандес, Челси Рикеттс, Бен Салливан, Алекс Кастильо
О фильме: Семья, отгородившаяся от окружающего мира, привлекает известного специалиста по оккультным наукам, чтобы вытащить сына из зловещей секты, одержимой культом насилия. Но в попытке остановить процесс захвата его разума, семья оказывается запертой в загородном доме в глубине леса в окружении безжалостных сектантов, решивших вернуть пропавшего члена своей секты.

Файл
Качество: HDRip 720p
Видео данные: MKV, 1280x536 (2:40:1), 23.976 fps, 4000 Кбит/с
Аудио данные: AC3, 2 ch, 640 Кбит/с
Перевод: Любительский многоголосый (GreenРай Studio)
Продолжительность: 01:26:35
Над релизом работали:
Состав дикторов: Руслан Чериев, Анастасия Гайдаржи, Тимур Бермудов
Руководитель проекта и координатор: Евгений Овчаренко
Организатор и координатор: Никита Марков
Пиар менеджер студии: Игорь Обухов
Техническая поддержка: Александр Методий
General
Unique ID : 200011577110005809222865067418984000714 (0x9678D41C60FFBBE996C6720BBCA62CCA)
Complete name : D:ВидеоJackals.2017.P.BDRip.720p.GreenРай Studio.mkv
Format : Matroska
Format version : Version 4 / Version 2
File size : 2.69 GiB
Duration : 1h 26mn
Overall bit rate mode : Constant
Overall bit rate : 4 444 Kbps
Encoded date : UTC 2018-01-20 10:51:19
Writing application : mkvmerge v8.3.0 ('Over the Horizon') 64bit
Writing library : libebml v1.3.1 + libmatroska v1.4.2
DURATION : 01:26:35.456000000
NUMBER_OF_FRAMES : 162358
NUMBER_OF_BYTES : 415636480
_STATISTICS_WRITING_APP : mkvmerge v8.3.0 ('Over the Horizon') 64bit
_STATISTICS_WRITING_DATE_UT : 2018-01-20 10:51:19
_STATISTICS_TAGS : BPS DURATION NUMBER_OF_FRAMES NUMBER_OF_BYTES
Video
ID : 1
Format : AVC
Format/Info : Advanced Video Codec
Format profile : [email protected]
Format settings, CABAC : Yes
Format settings, ReFrames : 3 frames
Codec ID : V_MPEG4/ISO/AVC
Duration : 1h 26mn
Bit rate mode : Constant
Bit rate : 3 716 Kbps
Nominal bit rate : 4 000 Kbps
Width : 1 280 pixels
Height : 536 pixels
Display aspect ratio : 2.40:1
Frame rate mode : Constant
Frame rate : 23.976 fps
Standard : NTSC
Color space : YUV
Chroma subsampling : 4:2:0
Bit depth : 8 bits
Scan type : Progressive
Bits/(Pixel*Frame) : 0.226
Stream size : 2.25 GiB (84%)
Language : English
Default : Yes
Forced : No
Color range : Limited
Audio
ID : 2
Format : AC-3
Format/Info : Audio Coding 3
Mode extension : CM (complete main)
Format settings, Endianness : Big
Codec ID : A_AC3
Duration : 1h 26mn
Bit rate mode : Constant
Bit rate : 640 Kbps
Channel(s) : 2 channels
Channel positions : Front: L R
Sampling rate : 48.0 KHz
Compression mode : Lossy
Stream size : 396 MiB (14%)
Default : Yes
Forced : No

ВНИМАНИЕ! Присутствует реклама!

Релиз от:



   Похожие торренты   Торрент   Размер 
В этой теме нет новых непрочитанных сообщений. Круги дьявола / Шакалы / Jackals (2017) HDRip | L

7 | 0

1.35 ГБ

В этой теме нет новых непрочитанных сообщений. Шакалы / Jackals (2017) WEB-DL 1080p | L1

457 | 32

3.22 ГБ

В этой теме нет новых непрочитанных сообщений. Шакалы / Jackals (2017) WEB-DLRip-AVC | L1

92 | 4

741.42 МБ

В этой теме нет новых непрочитанных сообщений. Шакалы / Jackals (2017) WEB-DLRip от ExKinoRay | L1

1210 | 36

1.38 ГБ

В этой теме нет новых непрочитанных сообщений. Шакалы / The Jackals (1967) DVDRip | SATKUR

8 | 0

742.55 МБ

В этой теме нет новых непрочитанных сообщений. Маша и медведь: На круги своя [53] (2015) WEB-DL 720p от GeneralFilm

597 | 19

98.78 МБ

В этой теме нет новых непрочитанных сообщений. Урожай дьявола / Bitter Harvest (2017) HDRip | L

34 | 6

2.04 ГБ




Вы не можете начинать темы
Вы не можете отвечать на сообщения
Вы не можете редактировать свои сообщения
Вы не можете удалять свои сообщения
Вы не можете добавлять вложения

Перейти:  
Для Мосгорсуда, Роскомнадзора и рекламодателей: mosgorsud-torrent[собачка]yandex.ru
 Вход
ppkBB3cker v.2 © 2008-2014 @ PPK
[ Time : 0.032s | 18 Queries | GZIP : Off ]

cron