img image001 image001 image001 image001 image001 image001 image001 image001 image001 image001 image001 image001 image001 image001 image001 image001
Planets Sun Sun Sun
Статистика раздачи
Автор: Nickolas3434 | Размер: 12.97 ГБ | Добавлен: 22 янв 2018
Раздают: 0    Качают: 0
Скачать торрент
Скачать торрент
Описание торрента

СообщениеДобавлено: 22 янв 2018 

Информация о фильме
Название: Подозрительные лица
Оригинальное название: The Usual Suspects
Год выпуска: 1995
Жанр: триллер, драма, криминал, детектив
Режиссер: Брайан Сингер
В ролях: Стивен Болдуин (McManus), Гэбриел Бирн (Keaton), Бенисио Дель Торо (Fenster), Кевин Поллак (Hockney), Кевин Спейси (Verbal), Чазз Пальминтери (Dave Kujan), Пит Постлетуэйт (Kobayashi), Сьюзи Эймис (Edie Finneran), Джанкарло Эспозито (Jack Baer), Дэн Хедайя (Jeff Rabin), Пол Бартел (Smuggler), Карл Бресслер (Saul Berg)
О фильме:
Обычно, если есть преступление, есть мотив. Обычно, если проводится опознание, по крайней мере есть один подозреваемый. Но это не было обычным преступлением... Пятеро преступников столкнулись в одном необычном месте и решили прокрутить одно дельце. Но кто-то более сильный и могущественный, кто-то, чье имя пугает всех преступников мира, хочет, чтобы они поработали на него... Это не было обычным преступлением, и они - не просто подозрительные лица...

MPAA: R - Лицам до 17 лет обязательно присутствие взрослого
Страна: США, Германия
Студия: PolyGram Filmed Entertainment, Rosco Film GmbH, Spelling Films International
Продолжительность: 01:46:06
Перевод: Профессиональный (многоголосый, закадровый) Фильм-Экспорт по заказу СТС + Профессиональный (многоголосый, закадровый) РТР + Профессиональный (многоголосый, закадровый) R5 + Профессиональный (многоголосый, закадровый) Киномания + Авторский (одноголосый, закадровый) М.Чадов + Авторский (одноголосый, закадровый) А.Гаврилов + Авторский (одноголосый, закадровый) П.Карцев + Авторский (одноголосый, закадровый) Ю.Живов + Авторский (одноголосый, закадровый) С.Визгунов + Любительский (одноголосый, закадровый) В.Назаров + Авторский (одноголосый, закадровый) Лёша "Прапорщик" + Любительский (одноголосый, закадровый) Неизвестный
Файл
Качество: WEB-DL 1080p | Open Matte
Формат: Matroska
Видео: 1920x1080 at 23.976 fps, MPEG-4 AVC, ~12900 kbps avg
Аудио#1: Russian: 48 kHz, AC3, 2/0 (L,R) ch, ~192 kbps avg |Многоголосый закадровый, Фильм-Экспорт по заказу СТС|
Аудио#2: Russian: 48 kHz, AC3, 2/0 (L,R) ch, ~192 kbps avg |Многоголосый закадровый, РТР|
Аудио#3: Russian: 48 kHz, AC3, 2/0 (L,R) ch, ~192 kbps avg |Многоголосый закадровый, R5|
Аудио#4: Russian: 48 kHz, AC3, 3/2 (L,C,R,l,r) + LFE ch, ~448 kbps avg |Многоголосый закадровый, Киномания|
Аудио#5: Russian: 48 kHz, AC3, 3/2 (L,C,R,l,r) + LFE ch, ~640 kbps avg |Авторский, М.Чадов|
Аудио#6: Russian: 48 kHz, AC3, 3/2 (L,C,R,l,r) + LFE ch, ~448 kbps avg |Авторский, А.Гаврилов|
Аудио#7: Russian: 48 kHz, AC3, 3/2 (L,C,R,l,r) + LFE ch, ~640 kbps avg |Авторский, П.Карцев|
Аудио#8: Russian: 48 kHz, AC3, 2/0 (L,R) ch, ~192 kbps avg |Авторский, Ю.Живов|
Аудио#9: Russian: 48 kHz, AC3, 2/0 (L,R) ch, ~192 kbps avg |Авторский, С.Визгунов|
Аудио#10: Russian: 48 kHz, AC3, 3/2 (L,C,R,l,r) + LFE ch, ~448 kbps avg |Любительский, В.Назаров|
Аудио#11: Russian: 48 kHz, AC3, 2/0 (L,R) ch, ~192 kbps avg |Авторский, Лёша "Прапорщик"|
Аудио#12: Russian: 48 kHz, AC3, 2/0 (L,R) ch, ~192 kbps avg |Любительский, Неизвестный|
Аудио#13: English: 48 kHz, E-AC3, 3/2 (L,C,R,l,r) + LFE ch, ~640 kbps avg |Amazon|
Субтитры: Russian, English, English (SDH)
***Исходник видео - Amazon.
***Релиз - spartanec163.
***Раздача отличается от той, что на bluebird - видео не с подписки starz, соответственно, без всплывающего логотипа, битрейт выше, картинка лучше.
В прокате фильм более чем окупился, собрав только в Северной Америке более 23 миллионов $. Респектабельное издание The New York Times опубликовало положительную рецензию на фильм, в которой он сравнивался с «Бешеными псами» Тарантино как потенциально «культовый фильм» при том, что на самом деле это результат холодного расчёта создателей фильма и повествование практически не затрагивает зрительских эмоций. Роджер Эберт, признавая, что запутался в сюжетных перипетиях и был обескуражен неожиданной развязкой, разнёс фильм в пух и прах; впоследствии он включил его в число своих наименее любимых фильмов.
Составители онлайн-энциклопедии Allmovie, оценивая «Подозрительные лица» с высоты прошедших лет, назвали его одним из самых совершенных триллеров десятилетия: «Бескомпромиссно стильный и прибавляющий в закрученности с каждой новой сценой, фильм приглашал зрителей разделить замешательство [действующих лиц], попытаться распознать, где тут иллюзия, а где реальность, как будто присутствуя на представлении фокусника».
Сцена с опознанием лиц была импровизацией актеров.
При написании сценария Маккуори отталкивался от одной из своих более ранних, неопубликованных работ, герой которой, расправившись с собственным семейством, надолго исчезал из поля зрения преступного мира и полиции. Все персонажи получили имена сотрудников юридической фирмы, в которой некогда работал сценарист. В англо-турецком разговорнике он почерпнул слово «созе», что значит «болтовня» (намёк на прозвище главного героя). Впоследствии сценарист описывал «Подозрительные лица» как гибрид «Расёмона» с «Двойной страховкой» (классический нуар).
Фильм был снят при относительно небольшом бюджете в 5,5 миллиона долларов всего за 35 дней. По ходу повествования было рассеяно достаточное количество ключей к личности Кайзера, чтобы мотивировать повторные просмотры. Рекламная кампания велась под слоганом «Ты знаешь, кто такой Кайзер Созе»? Впоследствии, получая «Оскар», Кевин Спэйси сострил: «Кем бы ни был Кайзер Созе, я могу заверить вас, что сегодня вечером он будет мертвецки пьян».
[*]«Величайший трюк Дьявола состоял в том, чтобы убедить мир, будто он не существует» - произносит по ходу своего рассказа Болтун. В этом бодлеровском афоризме заключён намёк на то, что суперзлодей, вокруг которого сплетена повествовательная канва, вовсе не является городской легендой.
Общее
Уникальный идентификатор : 202634552178467970127852439246430924144 (0x9871FEC42B4195808A5C862C03F9ED70)
Полное имя : The.Usual.Suspects.1995.Open.Matte.1080p.WEB-DL.12xRus.Eng.mkv
Формат : Matroska
Версия формата : Version 4 / Version 2
Размер файла : 13,0 Гбайт
Продолжительность : 1 ч. 46 м.
Режим общего битрейта : Переменный
Общий поток : 17,5 Мбит/сек
Название фильма : The.Usual.Suspects.1995.Open.Matte.1080p.WEB-DL.11xRus.Eng-spartanec163
Дата кодирования : UTC 2018-01-20 09:14:30
Программа кодирования : mkvmerge v8.3.0 ('Over the Horizon') 64bit
Библиотека кодирования : libebml v1.3.1 + libmatroska v1.4.2
Видео
Идентификатор : 1
Формат : AVC
Формат/Информация : Advanced Video Codec
Профиль формата : [email protected]
Параметр CABAC формата : Да
Параметр ReFrames формата : 4 кадра
Идентификатор кодека : V_MPEG4/ISO/AVC
Продолжительность : 1 ч. 46 м.
Вид битрейта : Переменный
Битрейт : 12,5 Мбит/сек
Максимальный битрейт : 15,0 Мбит/сек
Ширина : 1920 пикселей
Высота : 1080 пикселей
Соотношение сторон : 16:9
Режим частоты кадров : Постоянный
Частота кадров : 23,976 кадра/сек
Цветовое пространство : YUV
Субдискретизация насыщенности : 4:2:0
Битовая глубина : 8 бит
Тип развёртки : Прогрессивная
Бит/(Пиксели*Кадры) : 0.252
Размер потока : 9,29 Гбайт (72%)
Заголовок : WEB-DL 1080p (Amazon)
Язык : English
Default : Да
Forced : Нет
Основные цвета : BT.709
Характеристики трансфера : BT.709
Коэффициенты матрицы : BT.709
Аудио #1
Идентификатор : 2
Формат : AC-3
Формат/Информация : Audio Coding 3
Расширение режима : CM (complete main)
Параметр Endianness формата : Big
Идентификатор кодека : A_AC3
Продолжительность : 1 ч. 46 м.
Вид битрейта : Постоянный
Битрейт : 192 Кбит/сек
Каналы : 2 канала
Расположение каналов : Front: L R
Частота : 48,0 КГц
Битовая глубина : 16 бит
Метод сжатия : С потерями
Размер потока : 146 Мбайт (1%)
Заголовок : AC3 2.0 192Kbps (Профессиональный, многоголосый - Фильм-Экспорт по заказу СТС)
Язык : Russian
Default : Да
Forced : Нет
Аудио #2
Идентификатор : 3
Формат : AC-3
Формат/Информация : Audio Coding 3
Расширение режима : CM (complete main)
Параметр Endianness формата : Big
Идентификатор кодека : A_AC3
Продолжительность : 1 ч. 46 м.
Вид битрейта : Постоянный
Битрейт : 192 Кбит/сек
Каналы : 2 канала
Расположение каналов : Front: L R
Частота : 48,0 КГц
Битовая глубина : 16 бит
Метод сжатия : С потерями
Размер потока : 146 Мбайт (1%)
Заголовок : AC3 2.0 192Kbps (Профессиональный, многоголосый - РТР)
Язык : Russian
Default : Нет
Forced : Нет
Аудио #3
Идентификатор : 4
Формат : AC-3
Формат/Информация : Audio Coding 3
Расширение режима : CM (complete main)
Параметр Endianness формата : Big
Идентификатор кодека : A_AC3
Продолжительность : 1 ч. 46 м.
Вид битрейта : Постоянный
Битрейт : 192 Кбит/сек
Каналы : 2 канала
Расположение каналов : Front: L R
Частота : 48,0 КГц
Битовая глубина : 16 бит
Метод сжатия : С потерями
Размер потока : 146 Мбайт (1%)
Заголовок : AC3 2.0 192Kbps (Профессиональный, многоголосый - R5)
Язык : Russian
Default : Нет
Forced : Нет
Аудио #4
Идентификатор : 5
Формат : AC-3
Формат/Информация : Audio Coding 3
Расширение режима : CM (complete main)
Параметр Endianness формата : Big
Идентификатор кодека : A_AC3
Продолжительность : 1 ч. 46 м.
Вид битрейта : Постоянный
Битрейт : 448 Кбит/сек
Каналы : 6 каналов
Расположение каналов : Front: L C R, Side: L R, LFE
Частота : 48,0 КГц
Битовая глубина : 16 бит
Метод сжатия : С потерями
Размер потока : 340 Мбайт (3%)
Заголовок : AC3 5.1 448Kbps (Профессиональный, многоголосый - Киномания)
Язык : Russian
Default : Нет
Forced : Нет
Аудио #5
Идентификатор : 6
Формат : AC-3
Формат/Информация : Audio Coding 3
Расширение режима : CM (complete main)
Параметр Endianness формата : Big
Идентификатор кодека : A_AC3
Продолжительность : 1 ч. 46 м.
Вид битрейта : Постоянный
Битрейт : 640 Кбит/сек
Каналы : 6 каналов
Расположение каналов : Front: L C R, Side: L R, LFE
Частота : 48,0 КГц
Битовая глубина : 16 бит
Метод сжатия : С потерями
Размер потока : 486 Мбайт (4%)
Заголовок : AC3 5.1 640Kbps (Одноголосый - М. Чадов)
Язык : Russian
Default : Нет
Forced : Нет
Аудио #6
Идентификатор : 7
Формат : AC-3
Формат/Информация : Audio Coding 3
Расширение режима : CM (complete main)
Параметр Endianness формата : Big
Идентификатор кодека : A_AC3
Продолжительность : 1 ч. 46 м.
Вид битрейта : Постоянный
Битрейт : 448 Кбит/сек
Каналы : 6 каналов
Расположение каналов : Front: L C R, Side: L R, LFE
Частота : 48,0 КГц
Битовая глубина : 16 бит
Метод сжатия : С потерями
Размер потока : 340 Мбайт (3%)
Заголовок : AC3 5.1 448Kbps (Авторский, одноголосый - А. Гаврилов)
Язык : Russian
Default : Нет
Forced : Нет
Аудио #7
Идентификатор : 8
Формат : AC-3
Формат/Информация : Audio Coding 3
Расширение режима : CM (complete main)
Параметр Endianness формата : Big
Идентификатор кодека : A_AC3
Продолжительность : 1 ч. 46 м.
Вид битрейта : Постоянный
Битрейт : 640 Кбит/сек
Каналы : 6 каналов
Расположение каналов : Front: L C R, Side: L R, LFE
Частота : 48,0 КГц
Битовая глубина : 16 бит
Метод сжатия : С потерями
Размер потока : 486 Мбайт (4%)
Заголовок : AC3 5.1 640Kbps (Авторский, одноголосый - П. Карцев)
Язык : Russian
Default : Нет
Forced : Нет
Аудио #8
Идентификатор : 9
Формат : AC-3
Формат/Информация : Audio Coding 3
Расширение режима : CM (complete main)
Параметр Endianness формата : Big
Идентификатор кодека : A_AC3
Продолжительность : 1 ч. 46 м.
Вид битрейта : Постоянный
Битрейт : 192 Кбит/сек
Каналы : 2 канала
Расположение каналов : Front: L R
Частота : 48,0 КГц
Битовая глубина : 16 бит
Метод сжатия : С потерями
Размер потока : 146 Мбайт (1%)
Заголовок : AC3 2.0 192Kbps (Авторский, одноголосый - Ю. Живов)
Язык : Russian
Default : Нет
Forced : Нет
Аудио #9
Идентификатор : 10
Формат : AC-3
Формат/Информация : Audio Coding 3
Расширение режима : CM (complete main)
Параметр Endianness формата : Big
Идентификатор кодека : A_AC3
Продолжительность : 1 ч. 46 м.
Вид битрейта : Постоянный
Битрейт : 192 Кбит/сек
Каналы : 2 канала
Расположение каналов : Front: L R
Частота : 48,0 КГц
Битовая глубина : 16 бит
Метод сжатия : С потерями
Размер потока : 146 Мбайт (1%)
Заголовок : AC3 2.0 192Kbps (Авторский, одноголосый - С. Визгунов)
Язык : Russian
Default : Нет
Forced : Нет
Аудио #10
Идентификатор : 11
Формат : AC-3
Формат/Информация : Audio Coding 3
Расширение режима : CM (complete main)
Параметр Endianness формата : Big
Идентификатор кодека : A_AC3
Продолжительность : 1 ч. 46 м.
Вид битрейта : Постоянный
Битрейт : 448 Кбит/сек
Каналы : 6 каналов
Расположение каналов : Front: L C R, Side: L R, LFE
Частота : 48,0 КГц
Битовая глубина : 16 бит
Метод сжатия : С потерями
Размер потока : 340 Мбайт (3%)
Заголовок : AC3 5.1 448Kbps (Одноголосый - В. Назаров aka VadimNaz)
Язык : Russian
Default : Нет
Forced : Нет
Аудио #11
Идентификатор : 12
Формат : AC-3
Формат/Информация : Audio Coding 3
Расширение режима : CM (complete main)
Параметр Endianness формата : Big
Идентификатор кодека : A_AC3
Продолжительность : 1 ч. 46 м.
Вид битрейта : Постоянный
Битрейт : 192 Кбит/сек
Каналы : 2 канала
Расположение каналов : Front: L R
Частота : 48,0 КГц
Битовая глубина : 16 бит
Метод сжатия : С потерями
Размер потока : 146 Мбайт (1%)
Заголовок : AC3 2.0 192Kbps (Авторский, одноголосый - Лёша "Прапорщик")
Язык : Russian
Default : Нет
Forced : Нет
Аудио #12
Идентификатор : 13
Формат : AC-3
Формат/Информация : Audio Coding 3
Расширение режима : CM (complete main)
Параметр Endianness формата : Big
Идентификатор кодека : A_AC3
Продолжительность : 1 ч. 46 м.
Вид битрейта : Постоянный
Битрейт : 192 Кбит/сек
Каналы : 2 канала
Расположение каналов : Front: L R
Частота : 48,0 КГц
Битовая глубина : 16 бит
Метод сжатия : С потерями
Размер потока : 146 Мбайт (1%)
Заголовок : AC3 2.0 192Kbps (Одноголосый - Неизвестный)
Язык : Russian
Default : Нет
Forced : Нет
Аудио #13
Идентификатор : 14
Формат : E-AC-3
Формат/Информация : Audio Coding 3
Параметр Endianness формата : Big
Идентификатор кодека : A_EAC3
Продолжительность : 1 ч. 46 м.
Вид битрейта : Постоянный
Битрейт : 640 Кбит/сек
Каналы : 6 каналов
Расположение каналов : Front: L C R, Side: L R, LFE
Частота : 48,0 КГц
Метод сжатия : С потерями
Размер потока : 486 Мбайт (4%)
Заголовок : E-AC3 5.1 640Kbps (Оригинал - Amazon)
Язык : English
Default : Нет
Forced : Нет
Текст #1
Идентификатор : 15
Формат : UTF-8
Идентификатор кодека : S_TEXT/UTF8
Идентификатор кодека/Информация : UTF-8 Plain Text
Язык : Russian
Default : Нет
Forced : Нет
Текст #2
Идентификатор : 16
Формат : UTF-8
Идентификатор кодека : S_TEXT/UTF8
Идентификатор кодека/Информация : UTF-8 Plain Text
Заголовок : BluRay
Язык : English
Default : Нет
Forced : Нет
Текст #3
Идентификатор : 17
Формат : UTF-8
Идентификатор кодека : S_TEXT/UTF8
Идентификатор кодека/Информация : UTF-8 Plain Text
Заголовок : SDH, Amazon
Язык : English
Default : Нет
Forced : Нет



   Похожие торренты   Торрент   Размер 
В этой теме нет новых непрочитанных сообщений. Подозрительные лица / The Usual Suspects (1995) WEB-DLRip-AVC | P | Open Matte

7 | 1

2.18 ГБ

В этой теме нет новых непрочитанных сообщений. Подозрительные лица / The Usual Suspects (1995) WEB-DLRip | P | Open Matte

9 | 0

1.45 ГБ

В этой теме нет новых непрочитанных сообщений. Подозрительные лица / The Usual Suspects (1995) BDRip 1080p от HDCLUB

77 | 13

14.82 ГБ

В этой теме нет новых непрочитанных сообщений. Подозрительные лица / The Usual Suspects (1995) BDRip 1080p от NoLimits-Team | P, A

116 | 18

7.95 ГБ

В этой теме нет новых непрочитанных сообщений. Подозрительные лица / The Usual Suspects (1995) DVDRip | A

85 | 8

2.14 ГБ

В этой теме нет новых непрочитанных сообщений. Подозрительные лица / The Usual Suspects (1995) BDRip | Гаврилов

52 | 5

1.46 ГБ

В этой теме нет новых непрочитанных сообщений. Подозрительные лица / The Usual Suspects (1995) BDRip от HQ-ViDEO

812 | 8

1.46 ГБ




Вы не можете начинать темы
Вы не можете отвечать на сообщения
Вы не можете редактировать свои сообщения
Вы не можете удалять свои сообщения
Вы не можете добавлять вложения

Перейти:  
Для Мосгорсуда, Роскомнадзора и рекламодателей: mosgorsud-torrent[собачка]yandex.ru
 Вход
ppkBB3cker v.2 © 2008-2014 @ PPK
[ Time : 0.034s | 19 Queries | GZIP : Off ]

cron