img image001 image001 image001 image001 image001 image001 image001 image001 image001 image001 image001 image001 image001 image001 image001 image001
Planets Sun Sun Sun
Статистика раздачи
Автор: Nickolas3434 | Размер: 56.71 ГБ | Добавлен: 18 янв 2018
Раздают: 0    Качают: 0
Скачать торрент
Скачать торрент
Описание торрента

СообщениеДобавлено: 18 янв 2018 

Информация о фильме
Название: Леон / Профессионал
Оригинальное название: Leon / The Professional
Год выхода: 1994
Жанр: Боевик, драма, криминал, триллер
Режиссер: Люк Бессон
В ролях: Жан Рено, Гэри Олдман, Натали Портман, Дэнни Айелло, Питер Эппел, Уилли Уан Блад, Дон Крич, Кит Э. Гласко, Рэндолф Скотт, Майкл Бадалукко, Эллен Грин, Элизабет Риджен, Карл Дж. Матусович, Фрэнк Сенгер, Эрик Шалье, Люк Бернар, Майвенн Ле Беско, Джесси Кеосян, Джордж Мартин
О фильме:
Профессиональный убийца Леон, не знающий пощады и жалости, знакомится со своей очаровательной соседкой Матильдой, семью которой расстреливают полицейские, замешанные в торговле наркотиками. Благодаря этому знакомству он впервые испытывает чувство любви, но…

Страна: Франция
Студия: Gaumont, Les Films du Dauphin
Продолжительность: 01:49:27
Перевод(ы):
#1: Профессиональный многоголосый | Лицензия R5
#2: Авторский | Пучков (Гоблин)
#3: Авторский | Рукин
Файл
Качество: BDRemux 2160p
Видео: MPEG-H HEVC HDR Video, 3840x2160, 65.6 Mbit/s, 23.976 fps
Звук:
Аудио #01: 48 kHz, AC3, 5.1, 448 Kbps | Профессиональный многоголосый | RUS |
Аудио #02: 48 kHz, DTS, 5.1, 1510 Kbps | Авторскийs | RUS |
Аудио #03: 48 kHz, DTS, 5.1, 1510 Kbps | Авторский | RUS |
Аудио #04: 48 kHz, TrueHD, 7.1, 4433 Kbps | Оригинал | ENG |
Аудио #05: 48 kHz, AC3, 5.1, 640 Kbps | Оригинал | ENG |
Субтитры: Русские (full), английские

General
Unique ID : 214752260532738250544759136074764604415 (0xA18FC7EA4619D0C07E6A3981474753FF)
Complete name : G:VideoSSDLeon.The.Professional.1994.Theatrical.Cut.BDREMUX.2160p.4K.UltraHD.HEVC.HDR.ExKinoRay.mkv
Format : Matroska
Format version : Version 4 / Version 2
File size : 56.7 GiB
Duration : 1 h 49 min
Overall bit rate mode : Variable
Overall bit rate : 74.2 Mb/s
Movie name : Leon The Professional 1994 Theatrical Cut from ExKinoRay
Encoded date : UTC 2018-01-18 03:36:40
Writing application : mkvmerge v20.0.0 ('I Am The Sun') 64-bit
Writing library : libebml v1.3.5 + libmatroska v1.4.8
Cover : Yes
Attachments : cover.jpg / xlog.txt
Video
ID : 1
Format : HEVC
Format/Info : High Efficiency Video Coding
Format profile : Main [email protected]@High
Codec ID : V_MPEGH/ISO/HEVC
Duration : 1 h 49 min
Bit rate : 65.6 Mb/s
Width : 3 840 pixels
Height : 2 160 pixels
Display aspect ratio : 16:9
Frame rate mode : Constant
Frame rate : 23.976 (23976/1000) FPS
Original frame rate : 23.976 (24000/1001) FPS
Color space : YUV
Chroma subsampling : 4:2:0 (Type 2)
Bit depth : 10 bits
Bits/(Pixel*Frame) : 0.330
Stream size : 50.1 GiB (88%)
Language : French
Default : Yes
Forced : No
Color range : Limited
Color primaries : BT.2020
Transfer characteristics : PQ
Matrix coefficients : BT.2020 non-constant
Mastering display color pri : R: x=0.680000 y=0.320000, G: x=0.265000 y=0.690000, B: x=0.150000 y=0.060000, White point: x=0.312700 y=0.329000
Mastering display luminance : min: 0.0050 cd/m2, max: 4000.0000 cd/m2
Maximum Content Light Level : 2430 cd/m2
Maximum Frame-Average Light : 314 cd/m2
Audio #1
ID : 2
Format : AC-3
Format/Info : Audio Coding 3
Codec ID : A_AC3
Duration : 1 h 49 min
Bit rate mode : Constant
Bit rate : 448 kb/s
Channel(s) : 6 channels
Channel positions : Front: L C R, Side: L R, LFE
Sampling rate : 48.0 kHz
Frame rate : 31.250 FPS (1536 SPF)
Bit depth : 16 bits
Compression mode : Lossy
Stream size : 351 MiB (1%)
Title : MVO [R5]
Language : Russian
Service kind : Complete Main
Default : Yes
Forced : No
Audio #2
ID : 3
Format : DTS
Format/Info : Digital Theater Systems
Codec ID : A_DTS
Duration : 1 h 49 min
Bit rate mode : Constant
Bit rate : 1 509 kb/s
Channel(s) : 6 channels
Channel positions : Front: L C R, Side: L R, LFE
Sampling rate : 48.0 kHz
Frame rate : 93.750 FPS (512 SPF)
Bit depth : 24 bits
Compression mode : Lossy
Stream size : 1.15 GiB (2%)
Title : AVO [Goblin]
Language : Russian
Default : No
Forced : No
Audio #3
ID : 4
Format : DTS
Format/Info : Digital Theater Systems
Codec ID : A_DTS
Duration : 1 h 49 min
Bit rate mode : Constant
Bit rate : 1 509 kb/s
Channel(s) : 6 channels
Channel positions : Front: L C R, Side: L R, LFE
Sampling rate : 48.0 kHz
Frame rate : 93.750 FPS (512 SPF)
Bit depth : 24 bits
Compression mode : Lossy
Stream size : 1.15 GiB (2%)
Title : AVO [Rukin]
Language : Russian
Default : No
Forced : No
Audio #4
ID : 5
Format : TrueHD
Format profile : TrueHD+Atmos / TrueHD
Codec ID : A_TRUEHD
Duration : 1 h 49 min
Bit rate mode : Variable
Bit rate : 4 433 kb/s
Maximum bit rate : 5 418 kb/s
Channel(s) : Object Based / 8 channels
Channel positions : Object Based / Front: L C R, Side: L R, Back: L R, LFE
Sampling rate : / 48.0 kHz
Frame rate : 1 200.000 FPS (40 SPF)
Compression mode : Lossless
Stream size : 3.39 GiB (6%)
Title : Original
Language : English
Default : No
Forced : No
Audio #5
ID : 6
Format : AC-3
Format/Info : Audio Coding 3
Codec ID : A_AC3
Duration : 1 h 49 min
Bit rate mode : Constant
Bit rate : 640 kb/s
Channel(s) : 6 channels
Channel positions : Front: L C R, Side: L R, LFE
Sampling rate : 48.0 kHz
Frame rate : 31.250 FPS (1536 SPF)
Bit depth : 16 bits
Compression mode : Lossy
Stream size : 501 MiB (1%)
Language : English
Service kind : Complete Main
Default : No
Forced : No
Text #1
ID : 7
Format : UTF-8
Codec ID : S_TEXT/UTF8
Codec ID/Info : UTF-8 Plain Text
Duration : 1 h 43 min
Bit rate : 54 b/s
Count of elements : 714
Stream size : 41.6 KiB (0%)
Title : Full
Language : Russian
Default : No
Forced : No
Text #2
ID : 8
Format : UTF-8
Codec ID : S_TEXT/UTF8
Codec ID/Info : UTF-8 Plain Text
Duration : 1 h 46 min
Bit rate : 35 b/s
Count of elements : 900
Stream size : 27.7 KiB (0%)
Title : Full
Language : English
Default : No
Forced : No
Menu
00:00:00.000 : en:Chapter 1
00:10:00.766 : en:Chapter 2
00:17:00.978 : en:Chapter 3
00:24:18.456 : en:Chapter 4
00:30:14.354 : en:Chapter 5
00:33:54.282 : en:Chapter 6
00:42:40.349 : en:Chapter 7
00:47:46.238 : en:Chapter 8
00:55:07.470 : en:Chapter 9
01:03:30.806 : en:Chapter 10
01:08:17.510 : en:Chapter 11
01:11:07.304 : en:Chapter 12
01:19:34.060 : en:Chapter 13
01:25:08.019 : en:Chapter 14
01:30:40.309 : en:Chapter 15
01:38:32.573 : en:Chapter 16

Релиз от: Автор релиза:
Подпишись на меня, кликни по картинке > :



   Похожие торренты   Торрент   Размер 
В этой теме нет новых непрочитанных сообщений. Леон: Профессионал / Leon: The Professional (1994) BDRip от HQCLUB | Tеатральная версия

8 | 3

2.18 ГБ

В этой теме нет новых непрочитанных сообщений. Леон / Леон: Профессионал / Léon / Leon / Leon: The Professional (1994) HDRip от Scarabey | Режиссерская версия / Director's сut

31 | 8

781.89 МБ

В этой теме нет новых непрочитанных сообщений. Леон / Леон: Профессионал / Léon / Leon / Leon: The Professional (1994) HDRip от Scarabey | Режиссерская версия / Director's сut

1364 | 36

1.45 ГБ

В этой теме нет новых непрочитанных сообщений. Леон / Леон: Профессионал / Léon / Leon / Leon: The Professional (1994) ВDRip | Режиссерская версия / Director's сut

388 | 33

1.45 ГБ

В этой теме нет новых непрочитанных сообщений. Леон / Леон: Профессионал / Léon / Leon: The Professional (1994) BDRip-AVC | P | Режиссерская версия

305 | 11

1.46 ГБ

В этой теме нет новых непрочитанных сообщений. Леон / Леон: Профессионал / Léon / Leon: The Professional (1994) BDRip-AVC | P | Театральная версия

113 | 11

1.45 ГБ

В этой теме нет новых непрочитанных сообщений. Леон / Leon: The Professional (1994) HDRip-AVC | P | Режиссерская версия

151 | 19

745.64 МБ




Вы не можете начинать темы
Вы не можете отвечать на сообщения
Вы не можете редактировать свои сообщения
Вы не можете удалять свои сообщения
Вы не можете добавлять вложения

Перейти:  
Для Мосгорсуда, Роскомнадзора и рекламодателей: mosgorsud-torrent[собачка]yandex.ru
 Вход
ppkBB3cker v.2 © 2008-2014 @ PPK
[ Time : 0.035s | 19 Queries | GZIP : Off ]

cron