img image001 image001 image001 image001 image001 image001 image001 image001 image001 image001 image001 image001 image001 image001 image001 image001
Planets Sun Sun Sun
Статистика раздачи
Автор: Nickolas3434 | Размер: 13.19 ГБ | Добавлен: 18 янв 2018
Раздают: 5    Качают: 0
Скачать торрент
Скачать торрент
Описание торрента

СообщениеДобавлено: 18 янв 2018 

Название: Восхождение Юпитер
Оригинальное название: Jupiter Ascending
Год выхода: 2015
Жанр: фантастика, боевик, приключения
Режиссер: Энди Вачовски, Лана Вачовски
В ролях: Ченнинг Татум, Мила Кунис, Шон Бин, Эдди Редмэйн, Дуглас Бут, Таппенс Мидлтон, Никки Амука-Бёрд, Кристина Коул, Николас А. Ньюман, Рамон Тикарам


О фильме: Юпитер Джонс родилась под ночным небом, и все знаки предсказывали, что девочке предстоят великие свершения. Юпитер выросла и каждый день видит во сне звезды, но просыпается в жесткой реальности, где она работает уборщицей и моет туалеты. Личная жизнь Юпитер тоже оставляет желать лучшего, пока девушка не встречает Кейна. Кейн, бывший военный охотник, прибывает на Землю, чтобы отыскать Юпитер и раскрыть девушке ее истинное предназначение. Благодаря своим генетическим особенностям Юпитер становится претенденткой невероятного наследия, способного изменить равновесие во Вселенной.





Страна: США, Австралия
Студия: Warner Bros. Pictures
Продолжительность: 02:07:34
Перевод: профессиональный (дублированный), авторский (одноголосый)
Субтитры: русские (forced, full), украинские (forced), английские (full, SDH, SDH-Colored)


Формат: MKV
Качество: BDRip 1080p [DON]
Видео: MPEG-4 AVC / 10800 kbps / 1920x800 / 23.976 fps
Звук:
#1. Russian: Dolby Digital Audio / 5.1 / 48 kHz / 448 kbps - Дубляж
#2. Russian: DTS Audio / 5.1 / 48 kHz / 1536 kbps - Авторский (Живов)
#3. Ukrainian: Dolby Digital Audio / 2.0 / 48 kHz / 192 kbps - Дубляж
#4. English: DTS Audio / 5.1 / 48 kHz / 1536 kbps - Оригинал
Format : Matroska
Format version : Version 2
File size : 13.2 GiB
Duration : 2 h 7 min
Overall bit rate : 14.8 Mb/s
Movie name : Jupiter Ascending (2015) BDRip 1080p
Encoded date : UTC 2018-01-17 13:32:50
Writing application : mkvmerge v4.9.1 ('Ich will') сборка от Jul 11 2011 23:53:15
Writing library : libebml v1.2.1 + libmatroska v1.1.1
Video
ID : 1
Format : AVC
Format/Info : Advanced Video Codec
Format profile : [email protected]
Format settings, CABAC : Yes
Format settings, RefFrames : 5 frames
Codec ID : V_MPEG4/ISO/AVC
Duration : 2 h 7 min
Bit rate : 10.8 Mb/s
Width : 1 920 pixels
Height : 800 pixels
Display aspect ratio : 2.40:1
Frame rate mode : Constant
Frame rate : 23.976 (24000/1001) FPS
Color space : YUV
Chroma subsampling : 4:2:0
Bit depth : 8 bits
Scan type : Progressive
Bits/(Pixel*Frame) : 0.294
Stream size : 9.66 GiB (73%)
Title : Восхождение Юпитер
Writing library : x264 core 140 r2377 1ca7bb9
Encoding settings : cabac=1 / ref=5 / deblock=1:-3:-3 / analyse=0x3:0x133 / me=umh / subme=10 / psy=1 / psy_rd=1.00:0.00 / mixed_ref=1 / me_range=48 / chroma_me=1 / trellis=2 / 8x8dct=1 / cqm=0 / deadzone=21,11 / fast_pskip=0 / chroma_qp_offset=-2 / threads=12 / lookahead_threads=2 / sliced_threads=0 / nr=0 / decimate=0 / interlaced=0 / bluray_compat=0 / constrained_intra=0 / bframes=8 / b_pyramid=2 / b_adapt=2 / b_bias=0 / direct=3 / weightb=1 / open_gop=0 / weightp=2 / keyint=240 / keyint_min=23 / scenecut=40 / intra_refresh=0 / rc_lookahead=60 / rc=crf / mbtree=0 / crf=16.0 / qcomp=0.65 / qpmin=0 / qpmax=69 / qpstep=4 / vbv_maxrate=62500 / vbv_bufsize=78125 / crf_max=0.0 / nal_hrd=none / filler=0 / ip_ratio=1.25 / pb_ratio=1.15 / aq=1:0.78
Language : English
Default : Yes
Forced : No
Audio #1
ID : 2
Format : AC-3
Format/Info : Audio Coding 3
Format settings, Endianness : Big
Codec ID : A_AC3
Duration : 2 h 7 min
Bit rate mode : Constant
Bit rate : 448 kb/s
Channel(s) : 6 channels
Channel positions : Front: L C R, Side: L R, LFE
Sampling rate : 48.0 kHz
Frame rate : 31.250 FPS (1536 SPF)
Bit depth : 16 bits
Compression mode : Lossy
Stream size : 409 MiB (3%)
Title : Дубляж
Language : Russian
Service kind : Complete Main
Default : Yes
Forced : No
Audio #2
ID : 3
Format : DTS
Format/Info : Digital Theater Systems
Mode : 16
Format settings, Endianness : Big
Codec ID : A_DTS
Duration : 2 h 7 min
Bit rate mode : Constant
Bit rate : 1 510 kb/s
Channel(s) : 6 channels
Channel positions : Front: L C R, Side: L R, LFE
Sampling rate : 48.0 kHz
Frame rate : 93.750 FPS (512 SPF)
Bit depth : 24 bits
Compression mode : Lossy
Stream size : 1.35 GiB (10%)
Title : Живов
Language : Russian
Default : No
Forced : No
Audio #3
ID : 4
Format : AC-3
Format/Info : Audio Coding 3
Format settings, Endianness : Big
Codec ID : A_AC3
Duration : 2 h 7 min
Bit rate mode : Constant
Bit rate : 192 kb/s
Channel(s) : 2 channels
Channel positions : Front: L R
Sampling rate : 48.0 kHz
Frame rate : 31.250 FPS (1536 SPF)
Bit depth : 16 bits
Compression mode : Lossy
Stream size : 175 MiB (1%)
Title : Дубляж
Language : Ukrainian
Service kind : Complete Main
Default : No
Forced : No
Audio #4
ID : 5
Format : DTS
Format/Info : Digital Theater Systems
Mode : 16
Format settings, Endianness : Big
Codec ID : A_DTS
Duration : 2 h 7 min
Bit rate mode : Constant
Bit rate : 1 510 kb/s
Channel(s) : 6 channels
Channel positions : Front: L C R, Side: L R, LFE
Sampling rate : 48.0 kHz
Frame rate : 93.750 FPS (512 SPF)
Bit depth : 24 bits
Compression mode : Lossy
Stream size : 1.35 GiB (10%)
Title : Original
Language : English
Default : No
Forced : No
Text #1
ID : 6
Format : UTF-8
Codec ID : S_TEXT/UTF8
Codec ID/Info : UTF-8 Plain Text
Title : forced
Language : Russian
Default : Yes
Forced : No
Text #2
ID : 7
Format : UTF-8
Codec ID : S_TEXT/UTF8
Codec ID/Info : UTF-8 Plain Text
Title : full
Language : Russian
Default : No
Forced : No
Text #3
ID : 8
Format : UTF-8
Codec ID : S_TEXT/UTF8
Codec ID/Info : UTF-8 Plain Text
Title : forced
Language : Ukrainian
Default : No
Forced : No
Text #4
ID : 9
Format : UTF-8
Codec ID : S_TEXT/UTF8
Codec ID/Info : UTF-8 Plain Text
Title : full
Language : English
Default : No
Forced : No
Text #5
ID : 10
Format : UTF-8
Codec ID : S_TEXT/UTF8
Codec ID/Info : UTF-8 Plain Text
Title : SDH
Language : English
Default : No
Forced : No
Text #6
ID : 11
Format : UTF-8
Codec ID : S_TEXT/UTF8
Codec ID/Info : UTF-8 Plain Text
Title : SDH-COLORED
Language : English
Default : No
Forced : No
Menu
00:00:00.000 : en:00:00:00.000
00:08:45.024 : en:00:08:45.024
00:19:31.170 : en:00:19:31.170
00:31:32.974 : en:00:31:32.974
00:41:42.542 : en:00:41:42.542
00:49:35.639 : en:00:49:35.639
00:58:29.631 : en:00:58:29.631
01:09:20.031 : en:01:09:20.031
01:19:07.201 : en:01:19:07.201
01:29:09.427 : en:01:29:09.427
01:36:08.513 : en:01:36:08.513
01:43:26.575 : en:01:43:26.575
01:52:58.772 : en:01:52:58.772
01:57:59.489 : en:01:57:59.489




   Похожие торренты   Торрент   Размер 
В этой теме нет новых непрочитанных сообщений. Восхождение Юпитер / Jupiter Ascending (2015) BDRip 1080p | Лицензия

506 | 40

8.1 ГБ

В этой теме нет новых непрочитанных сообщений. Восхождение Юпитер / Jupiter Ascending (2015) BDRip 1080p | Лицензия

1685 | 103

7.76 ГБ

В этой теме нет новых непрочитанных сообщений. Восхождение Юпитер / Jupiter Ascending (2015) Blu-Ray CEE 1080p от New-Team | 3D-Video | Лицензия

121 | 57

41.11 ГБ

В этой теме нет новых непрочитанных сообщений. Восхождение Юпитер / Jupiter Ascending (2015) BDRip-AVC | D | Лицензия

874 | 61

846.84 МБ

В этой теме нет новых непрочитанных сообщений. Восхождение Юпитер / Jupiter Ascending (2015) BDRip-AVC от HELLYWOOD | Лицензия

947 | 29

2.18 ГБ

В этой теме нет новых непрочитанных сообщений. Восхождение Юпитер / Jupiter Ascending (2015) BDRip-AVC от HELLYWOOD | Лицензия

1127 | 86

1.46 ГБ

В этой теме нет новых непрочитанных сообщений. Восхождение Юпитер / Jupiter Ascending (2015) BDRip от HQCLUB | D | Лицензия

1468 | 61

2.18 ГБ




Вы не можете начинать темы
Вы не можете отвечать на сообщения
Вы не можете редактировать свои сообщения
Вы не можете удалять свои сообщения
Вы не можете добавлять вложения

Перейти:  
Для Мосгорсуда, Роскомнадзора и рекламодателей: mosgorsud-torrent[собачка]yandex.ru
 Вход
ppkBB3cker v.2 © 2008-2014 @ PPK
[ Time : 0.132s | 18 Queries | GZIP : Off ]

cron