img image001 image001 image001 image001 image001 image001 image001 image001 image001 image001 image001 image001 image001 image001 image001 image001
Planets Sun Sun Sun
Статистика раздачи
Автор: Nickolas3434 | Размер: 745.64 МБ | Добавлен: 18 янв 2018
Раздают: 42    Качают: 1
Скачать торрент
Скачать торрент
Описание торрента

СообщениеДобавлено: 18 янв 2018 

Информация о фильме
Название: Геошторм
Оригинальное название: Geostorm
Год выхода: 2017
Жанр: Фантастика, боевик, триллер
Режиссер: Дин Девлин, Пол Гуйо
В ролях: Джерард Батлер, Джим Стёрджесс, Эбби Корниш, Александра Мария Лара, Дэниэл Ву, Эухенио Дербес, Амр Вакед, Эдеперо Одуйе, Энди Гарсиа, Эд Харрис, Роберт Шиэн, Ричард Шифф, Мэр Уиннингхэм, Зази Битц, Талита Бейтман, Даниэлла Гарсиа-Лоридо, Ричи Монтгомери, Билли Слотер, Грегори Алан Уильямс, Дэвид Дженсен, Дерек Робертс, Нэйтан Мур, Катрин Эштон, Рэндолл Ньюсом, Дуглас М. Гриффин
О фильме :
После беспрецедентной серии стихийных бедствий, обрушившихся на нашу планету, лидеры мировых держав объединили усилия, чтобы создать разветвленную сеть орбитальных спутников по контролю над климатом для предотвращения природных катаклизмов. Но что-то пошло не так — система, выстроенная для защиты Земли, теперь угрожает ей. Начинается гонка наперегонки со временем, в которой надо успеть обнаружить реальную угрозу до того, как всемирный Геошторм сотрёт с лица Земли всё живое.

Страна: США
Студия: Warner Bros., Electric Entertainment, Jerry Bruckheimer Films, Skydance Media
Продолжительность: 01:49:07
Перевод: Дублированный | iTunes
Файл
Формат: MKV
Качество: HDRip-AVC
Видео: MPEG-4 AVC, 784x328, ~ 877 Кбит/с
Аудио: AAC-LC, 2 ch, ~ 76 Кбит/с
Субтитры: Русские (forced, full), английские
Общее
Уникальный идентификатор : 227081506289620313126731192876814128703 (0xAAD64EA9C4F0565899E84A060DA5563F)
Полное имя : D:MOVIESGeostorm.2017.ExKinoRay.mkv
Формат : Matroska
Версия формата : Version 4 / Version 2
Размер файла : 746 Мбайт
Продолжительность : 1 ч. 49 м.
Общий поток : 955 Кбит/сек
Дата кодирования : UTC 2018-01-17 13:23:26
Программа кодирования : mkvmerge v15.0.0 ('Duel with the Devil') 64-bit
Библиотека кодирования : libebml v1.3.5 + libmatroska v1.4.5
Видео
Идентификатор : 1
Формат : AVC
Формат/Информация : Advanced Video Codec
Профиль формата : [email protected]
Параметр CABAC формата : Да
Параметр RefFrames формата : 10 кадров
Идентификатор кодека : V_MPEG4/ISO/AVC
Продолжительность : 1 ч. 49 м.
Битрейт : 877 Кбит/сек
Ширина : 784 пикселя
Высота : 328 пикселей
Соотношение сторон : 2,40:1
Режим частоты кадров : Постоянный
Частота кадров : 23,976 (24000/1001) кадра/сек
Цветовое пространство : YUV
Субдискретизация насыщенности : 4:2:0
Битовая глубина : 8 бит
Тип развёртки : Прогрессивная
Бит/(Пиксели*Кадры) : 0.142
Размер потока : 684 Мбайт (92%)
Библиотека кодирования : x264 core 152 r2851kMod ba24899
Настройки программы : cabac=1 / ref=10 / deblock=1:-3:-3 / analyse=0x3:0x133 / me=umh / subme=11 / psy=1 / fade_compensate=0.00 / psy_rd=1.00:0.12 / mixed_ref=1 / me_range=32 / chroma_me=1 / trellis=2 / 8x8dct=1 / cqm=0 / deadzone=21,11 / fast_pskip=0 / chroma_qp_offset=-3 / threads=6 / lookahead_threads=1 / sliced_threads=0 / nr=0 / decimate=0 / interlaced=0 / bluray_compat=0 / constrained_intra=0 / bframes=10 / b_pyramid=2 / b_adapt=2 / b_bias=0 / direct=3 / weightb=1 / open_gop=0 / weightp=2 / keyint=240 / keyint_min=23 / scenecut=40 / intra_refresh=0 / rc_lookahead=40 / rc=2pass / mbtree=1 / bitrate=877 / ratetol=1.0 / qcomp=0.60 / qpmin=0 / qpmax=69 / qpstep=4 / cplxblur=20.0 / qblur=0.5 / vbv_maxrate=50000 / vbv_bufsize=62500 / nal_hrd=none / filler=0 / ip_ratio=1.40 / aq=3:1.00
Default : Да
Forced : Нет
Аудио
Идентификатор : 2
Формат : AAC
Формат/Информация : Advanced Audio Codec
Профиль формата : LC
Идентификатор кодека : A_AAC
Продолжительность : 1 ч. 49 м.
Битрейт : 76,0 Кбит/сек
Каналы : 2 канала
Расположение каналов : Front: L R
Частота : 48,0 КГц
Частота кадров : 46,875 кадров/сек (1024 SPF)
Метод сжатия : С потерями
Задержка видео : 9 мс.
Размер потока : 59,3 Мбайт (8%)
Default : Да
Forced : Нет
Текст #1
Идентификатор : 3
Формат : UTF-8
Идентификатор кодека : S_TEXT/UTF8
Идентификатор кодека/Информация : UTF-8 Plain Text
Продолжительность : 1 ч. 37 м.
Битрейт : 2 бит/сек
ElementCount : 36
Размер потока : 1,95 Кбайт (0%)
Заголовок : Forced
Язык : Russian
Default : Да
Forced : Да
Текст #2
Идентификатор : 4
Формат : UTF-8
Идентификатор кодека : S_TEXT/UTF8
Идентификатор кодека/Информация : UTF-8 Plain Text
Продолжительность : 1 ч. 42 м.
Битрейт : 111 бит/сек
ElementCount : 1235
Размер потока : 83,9 Кбайт (0%)
Заголовок : Full
Язык : Russian
Default : Нет
Forced : Нет
Текст #3
Идентификатор : 5
Формат : UTF-8
Идентификатор кодека : S_TEXT/UTF8
Идентификатор кодека/Информация : UTF-8 Plain Text
Продолжительность : 1 ч. 40 м.
Битрейт : 69 бит/сек
ElementCount : 1464
Размер потока : 51,5 Кбайт (0%)
Заголовок : Full
Язык : English
Default : Нет
Forced : Нет
Меню
00:00:00.000 : en:00:00:00.000
00:08:33.972 : en:00:08:33.972
00:16:52.053 : en:00:16:52.053
00:27:20.556 : en:00:27:20.556
00:39:13.184 : en:00:39:13.184
00:48:47.925 : en:00:48:47.925
01:00:24.746 : en:01:00:24.746
01:11:01.090 : en:01:11:01.090
01:19:14.959 : en:01:19:14.959
01:30:08.570 : en:01:30:08.570
01:40:25.728 : en:01:40:25.728



Релиз от:



   Похожие торренты   Торрент   Размер 
В этой теме нет новых непрочитанных сообщений. Геошторм / Geostorm (2017) BDRip от ExKinoRay | iTunes

1023 | 12

1.41 ГБ

В этой теме нет новых непрочитанных сообщений. Геошторм / Geostorm (2017) BDRip 1080p от ExKinoRay | D, L | iTunes

0 | 0

8.43 ГБ

В этой теме нет новых непрочитанных сообщений. Геошторм / Geostorm (2017) BDRemux 1080p от ExKinoRay | D, L | iTunes

0 | 0

26.09 ГБ

В этой теме нет новых непрочитанных сообщений. Геошторм / Geostorm (2017) BDRip 720p от ExKinoRay | D, L | iTunes

566 | 37

4.8 ГБ

В этой теме нет новых непрочитанных сообщений. Геошторм / Geostorm (2017) BDRemux 1080p от ExKinoRay | D, L | 3D-Video | iTunes

0 | 0

33.25 ГБ

В этой теме нет новых непрочитанных сообщений. Геошторм / Geostorm (2017) BDRemux 1080p от ExKinoRay | D, L | 3D-Video | HSBS | iTunes

0 | 0

15.3 ГБ

В этой теме нет новых непрочитанных сообщений. Геошторм / Geostorm (2017) HDRip от MegaPeer | iTunes

609 | 25

1.41 ГБ




Вы не можете начинать темы
Вы не можете отвечать на сообщения
Вы не можете редактировать свои сообщения
Вы не можете удалять свои сообщения
Вы не можете добавлять вложения

Перейти:  
Для Мосгорсуда, Роскомнадзора и рекламодателей: mosgorsud-torrent[собачка]yandex.ru
 Вход
ppkBB3cker v.2 © 2008-2014 @ PPK
[ Time : 0.037s | 19 Queries | GZIP : Off ]

cron