img image001 image001 image001 image001 image001 image001 image001 image001 image001 image001 image001 image001 image001 image001 image001 image001
Planets Sun Sun Sun
Статистика раздачи
Автор: Nickolas3434 | Размер: 5.46 ГБ | Добавлен: 18 янв 2018
Раздают: 0    Качают: 0
Скачать торрент
Скачать торрент
Описание торрента

СообщениеДобавлено: 18 янв 2018 

Волан-де-Морт: Корни наследника / Voldemort: Origins of the Heir
Страна: Италия
Производство: Tryangle Films
Год выпуска: 2018
Жанр: фэнтези, приключения
Продолжительность: 00:52:51
Режиссер: Жанмария Пеццато / Gianmaria Pezzato
Автор сценария: Жанмария Пеццато, Дж.К. Роулинг
В ролях: Стефано Росси, Рори Стоктон, Давида Эллена, Андреа Баглио, Аврора Морони, Митч Торнтон, Маддалена Орчали, Андреа Бонфанти
Описание: Фильм рассказывает о юности Волан-де-Морта, сильного тёмного мага из Поттерианы, и о том, как современники узнали его и стали бояться произносить его имя. Помимо Волан-де-Морта, в фильме появляются и его однокурсники с других факультетов Хогвартса. В центре сюжета находится серия таинственных убийств, которые расследует волшебница Гриша МакЛаген...

Перевод: Любительский (многоголосый, закадровый) | No-Future
Субтитры: нет

Качество: WEBRip 1080р
Формат: МКV
Видео кодек: AVC
Аудио кодек: AAC
Видео: 1920x750 (2.560), 25.000 fps, MPEG-4 AVC ~14.3 Мbps avg
Аудио №1: 48.0 kHz, Advanced Audio Codec LC, 2/0 (L,R) ch, ~192 kbps | ENG | английский
Аудио №2: 48.0 kHz, Advanced Audio Codec LC, 2/0 (L,R) ch, ~317 kbps | RUS | No-Future
Дата премьеры (мир): 13 января 2018

General
Уникальный идентификатор: 193890147254140780054453608946561185145 (0x91DDE25138ACE8448D84E36F994FF579)
Формат: Matroska
Версия формата: Version 4 / Version 2
Размер файла: 5,46 Гбайт
Продолжительность: 52 м. 51 с.
Режим общего битрейта: Переменный
Общий поток: 14,8 Мбит/сек
Дата кодирования: UTC 2018-01-16 21:16:43
Программа кодирования: mkvmerge v9.5.0 ('Quiet Fire') 64bit
Библиотека кодирования: libebml v1.3.4 + libmatroska v1.4.5
Видео
Идентификатор: 2
Формат: AVC
Формат/Информация: Advanced Video Codec
Профиль формата: [email protected]
Параметр CABAC формата: Нет
Параметр ReFrames формата: 3 кадра
Параметр GOP формата: M=1, N=15
Идентификатор кодека: V_MPEG4/ISO/AVC
Продолжительность: 52 м. 51 с.
Вид битрейта: Переменный
Битрейт: 14,3 Мбит/сек
Максимальный битрейт: 18,0 Мбит/сек
Ширина: 1920 пикселей
Высота: 750 пикселей
Соотношение сторон: 2,560
Режим частоты кадров: Постоянный
Частота кадров: 25,000 кадров/сек
Стандарт вещания: NTSC
Цветовое пространство: YUV
Субдискретизация насыщенности: 4:2:0
Битовая глубина: 8 бит
Тип развёртки: Прогрессивная
Бит/(Пиксели*Кадры): 0.396
Размер потока: 5,27 Гбайт (97%)
Язык: English
Default: Да
Forced: Нет
Цветовой диапазон: Limited
Аудио #1
Идентификатор: 1
Формат: AAC
Формат/Информация: Advanced Audio Codec
Профиль формата: LC
Идентификатор кодека: A_AAC
Продолжительность: 52 м. 51 с.
Битрейт: 192 Кбит/сек
Каналы: 2 канала
Расположение каналов: Front: L R
Частота: 48,0 КГц
Частота кадров: 46,875 кадров/сек (1024 spf)
Метод сжатия: С потерями
Размер потока: 72,6 Мбайт (1%)
Заголовок: Original
Язык: English
Default: Нет
Forced: Нет
Аудио #2
Идентификатор: 3
Формат: AAC
Формат/Информация: Advanced Audio Codec
Профиль формата: LC
Идентификатор кодека: A_AAC
Продолжительность: 52 м. 51 с.
Битрейт: 317 Кбит/сек
Каналы: 2 канала
Расположение каналов: Front: L R
Частота: 48,0 КГц
Частота кадров: 46,875 кадров/сек (1024 spf)
Метод сжатия: С потерями
Размер потока: 120 Мбайт (2%)
Заголовок: No-Future
Язык: Russian
Default: Да
Forced: Нет



   Похожие торренты   Торрент   Размер 
В этой теме нет новых непрочитанных сообщений. Волан-де-Морт: Корни наследника / Voldemort: Origins of the Heir (2017) WEB-DLRip от Dalemake | L

0 | 0

741.14 МБ

В этой теме нет новых непрочитанных сообщений. Волан-де-Морт: Происхождение наследника / Voldemort: Origins of the Heir (2018) WEB-DL 1080p | No-Future

0 | 0

2.57 ГБ

В этой теме нет новых непрочитанных сообщений. Волшебники / The Magicians [03x01 из 13] (2018) WEBRip 1080р | ViruseProject

0 | 0

1.42 ГБ

В этой теме нет новых непрочитанных сообщений. Волшебники / The Magicians [03x01-02 из 13] (2018) WEBRip 1080р | ViruseProject

0 | 0

4.04 ГБ

В этой теме нет новых непрочитанных сообщений. .хак//Корни / .hack//Roots [01-26 из 26 + 9 спэшлов] (2006) DVDRip, WEBRip

16 | 13

7.02 ГБ

В этой теме нет новых непрочитанных сообщений. Чемпионат Испании 2017-2018 / 23-й тур / Малага - Атлетико (Мадрид) / Сетанта Спорт HD [Футбол, 10.02.2018, WEB-DL HD (1080р)]

0 | 0

2.75 ГБ

В этой теме нет новых непрочитанных сообщений. Молодежный чемпионат мира 2018 (U-20) / Четвертьфинал / Канада - Швейцария / Матч! Игра HD [Хоккей, 02.01.2018, MKV, Stream/1080р, RU]

0 | 0

6.96 ГБ




Вы не можете начинать темы
Вы не можете отвечать на сообщения
Вы не можете редактировать свои сообщения
Вы не можете удалять свои сообщения
Вы не можете добавлять вложения

Перейти:  
Для Мосгорсуда, Роскомнадзора и рекламодателей: mosgorsud-torrent[собачка]yandex.ru
 Вход
ppkBB3cker v.2 © 2008-2014 @ PPK
[ Time : 0.034s | 20 Queries | GZIP : Off ]

cron