img image001 image001 image001 image001 image001 image001 image001 image001 image001 image001 image001 image001 image001 image001 image001 image001
Planets Sun Sun Sun
Статистика раздачи
Автор: Nickolas3434 | Размер: 2.63 ГБ | Добавлен: 18 янв 2018
Раздают: 0    Качают: 0
Скачать торрент
Скачать торрент
Описание торрента

СообщениеДобавлено: 18 янв 2018 

Год выпуска: 2016
Оригинальное название: Swiss Army Man
Страна: США, Швеция
Жанр: фэнтези, драма, мелодрама, комедия, приключения
Возраст: 18+
Режиссер: Дэн Кван, Дэниэл Шайнерт
В ролях: Пол Дано, Дэниэл Рэдклифф, Мэри Элизабет Уинстэд, Антония Риберо, Тимоти Йолих, Ричард Гросс, Марика Кастил, Энди Халл, Аарон Маршалл, Шейн Каррут
Описание: Оказавшись на необитаемом острове, Хэнк уже был готов потерять всякую надежду, но все меняется, когда на берегу он находит труп по имени Мэнни.
Многофункциональность Мэнни поможет Хэнку выжить в диких условиях и заново обрести радость жизни. Вместе они отправятся в эпическое приключение, которое вернет Хэнка к девушке его мечты.
Продолжительность: 01:37:23
Перевод: Дублированный [iTunes]
Оригинальная дорожка: есть
Релиз от:
Качество видео: BDRip 720p Исходник: Blu-Ray Remux (1080p) Формат: mp4
Видео кодек: MPEG-4 AVC Аудио кодек: AAC
Видео: 1280x534 (2.40:1) at 23.976 fps, AVC at 3 542 kbps avg, 0.216 bit/pixel
Аудио №1 Rus: 48.0 KHz, AAC, 2 ch, 160.0 Kbps
Аудио №2 Eng: 48.0 KHz, AAC, 2 ch, 160.0 Kbps
Субтитры: русские (полные), английские (полные)
Навигация по главам: есть
Размер: 2.63 GiB
avs [info]: 1280x534p 1:1 @ 24000/1001 fps (cfr)
x264 [info]: using SAR=1/1
x264 [info]: using cpu capabilities: MMX2 SSE2Fast SSSE3 Cache64
x264 [info]: profile High, level 4.1
x264 [info]: frame I:1094 Avg QP:15.22 size:134686
x264 [info]: frame P:26606 Avg QP:18.91 size: 42051
x264 [info]: frame B:112393 Avg QP:21.99 size: 11752
x264 [info]: consecutive B-frames: 1.3% 1.1% 3.4% 19.4% 14.9% 37.5% 8.2% 3.6% 3.6% 3.4% 3.7%
x264 [info]: mb I I16..4: 8.0% 71.9% 20.1%
x264 [info]: mb P I16..4: 0.8% 10.4% 1.1% P16..4: 37.5% 20.1% 17.4% 0.7% 0.3% skip:11.6%
x264 [info]: mb B I16..4: 0.0% 1.3% 0.2% B16..8: 37.2% 7.8% 2.4% direct: 6.0% skip:45.1% L0:45.0% L1:44.3% BI:10.7%
x264 [info]: 8x8 transform intra:82.7% inter:64.1%
x264 [info]: coded y,uvDC,uvAC intra: 85.8% 83.3% 59.2% inter: 25.9% 21.4% 4.4%
x264 [info]: i16 v,h,dc,p: 55% 14% 8% 23%
x264 [info]: i8 v,h,dc,ddl,ddr,vr,hd,vl,hu: 15% 14% 23% 5% 9% 8% 9% 7% 9%
x264 [info]: i4 v,h,dc,ddl,ddr,vr,hd,vl,hu: 21% 14% 13% 7% 11% 10% 10% 7% 8%
x264 [info]: i8c dc,h,v,p: 55% 19% 17% 9%
x264 [info]: Weighted P-Frames: Y:6.7% UV:3.9%
x264 [info]: ref P L0: 43.7% 11.3% 18.4% 7.1% 6.2% 4.0% 4.1% 2.4% 2.5% 0.2% 0.0%
x264 [info]: ref B L0: 73.5% 11.5% 5.9% 3.3% 2.3% 1.9% 1.2% 0.4%
x264 [info]: ref B L1: 94.3% 5.7%
x264 [info]: kb/s:3541.95
encoded 140093 frames, 3.39 fps, 3541.95 kb/s

General
Complete name : ...Chelovek-shvejcarskij-nozh-2016_KinoGadget.mp4
Format : MPEG-4
Format profile : Base Media
Codec ID : isom (isom)
File size : 2.63 GiB
Duration : 1 h 37 min
Overall bit rate mode : Variable
Overall bit rate : 3 874 kb/s
Movie name : Человек – швейцарский нож | KinoGadget
Performer : Дэн Кван, Дэниэл Шайнерт
Director : Дэн Кван / Дэниэл Шайнерт
Actor : Пол Дано / Дэниэл Рэдклифф / Мэри Элизабет Уинстэд / Антония Риберо / Тимоти Йолих / Ричард Гросс / Марика Кастил / Энди Халл / Аарон Маршалл / Шейн Каррут
Screenplay by : Дэниэл Шайнерт / Дэн Кван
Producer : Миранда Бэйли / Лоуренс Ингли / Лорен Манн
Genre : Adventure, Comedy, Drama, Romance
ContentType : Short Film
Recorded date : 2016
Encoded date : UTC 2018-01-16 08:19:06
Tagged date : UTC 2018-01-16 12:49:46
Cover : Yes
ContentRating : mpaa|R|400|
LongDeion : Оказавшись на необитаемом острове, Хэнк уже был готов потерять всякую надежду, но все меняется, когда на берегу он находит труп по имени Мэнни. / / Многофункциональность Мэнни поможет Хэнку выжить в диких условиях и заново обрести радость жизни. Вместе они отправятся в эпическое приключение, которое вернет Хэнка к девушке его мечты.
HDVideo : Yes
Video
ID : 1
Format : AVC
Format/Info : Advanced Video Codec
Format profile : [email protected]
Format settings : CABAC / 9 Ref Frames
Format settings, CABAC : Yes
Format settings, ReFrames : 9 frames
Codec ID : avc1
Codec ID/Info : Advanced Video Coding
Duration : 1 h 37 min
Bit rate : 3 542 kb/s
Maximum bit rate : 17.0 Mb/s
Width : 1 280 pixels
Height : 534 pixels
Display aspect ratio : 2.40:1
Frame rate mode : Constant
Frame rate : 23.976 (24000/1001) FPS
Color space : YUV
Chroma subsampling : 4:2:0
Bit depth : 8 bits
Scan type : Progressive
Bits/(Pixel*Frame) : 0.216
Stream size : 2.41 GiB (91%)
Writing library : x264 core 152 r2851 ba24899
Encoding settings : cabac=1 / ref=9 / deblock=1:-2:-1 / analyse=0x3:0x133 / me=umh / subme=7 / psy=1 / psy_rd=1.00:0.00 / mixed_ref=1 / me_range=32 / chroma_me=1 / trellis=2 / 8x8dct=1 / cqm=0 / deadzone=21,11 / fast_pskip=0 / chroma_qp_offset=-2 / threads=3 / lookahead_threads=1 / sliced_threads=0 / nr=0 / decimate=1 / interlaced=0 / bluray_compat=0 / constrained_intra=0 / bframes=10 / b_pyramid=2 / b_adapt=2 / b_bias=0 / direct=1 / weightb=1 / open_gop=0 / weightp=2 / keyint=250 / keyint_min=25 / scenecut=40 / intra_refresh=0 / rc_lookahead=60 / rc=crf / mbtree=1 / crf=19.0 / qcomp=0.60 / qpmin=0 / qpmax=69 / qpstep=4 / vbv_maxrate=62500 / vbv_bufsize=78125 / crf_max=0.0 / nal_hrd=none / filler=0 / ip_ratio=1.40 / aq=1:1.00
Encoded date : UTC 2018-01-16 01:42:22
Tagged date : UTC 2018-01-16 08:21:46
Audio #1
ID : 2
Format : AAC
Format/Info : Advanced Audio Codec
Format profile : LC
Codec ID : mp4a-40-2
Duration : 1 h 37 min
Bit rate mode : Variable
Bit rate : 160 kb/s
Maximum bit rate : 168 kb/s
Channel(s) : 2 channels
Channel positions : Front: L R
Sampling rate : 48.0 kHz
Frame rate : 46.875 FPS (1024 SPF)
Compression mode : Lossy
Stream size : 111 MiB (4%)
Language : Russian
Encoded date : UTC 2018-01-16 01:53:07
Tagged date : UTC 2018-01-16 08:21:46
Audio #2
ID : 3
Format : AAC
Format/Info : Advanced Audio Codec
Format profile : LC
Codec ID : mp4a-40-2
Duration : 1 h 37 min
Bit rate mode : Variable
Bit rate : 160 kb/s
Maximum bit rate : 168 kb/s
Channel(s) : 2 channels
Channel positions : Front: L R
Sampling rate : 48.0 kHz
Frame rate : 46.875 FPS (1024 SPF)
Compression mode : Lossy
Stream size : 111 MiB (4%)
Language : English
Encoded date : UTC 2018-01-16 02:40:20
Tagged date : UTC 2018-01-16 08:21:46
Text #1
ID : 4
Format : Timed Text
Codec ID : tx3g
Duration : 1 h 31 min
Bit rate mode : Variable
Bit rate : 87 b/s
Stream size : 58.1 KiB (0%)
Language : Russian
Forced : No
Encoded date : UTC 2018-01-16 08:21:46
Tagged date : UTC 2018-01-16 08:21:46
Text #2
ID : 5
Format : Timed Text
Codec ID : tx3g
Duration : 1 h 36 min
Bit rate mode : Variable
Bit rate : 57 b/s
Stream size : 40.2 KiB (0%)
Language : English
Forced : No
Encoded date : UTC 2018-01-16 08:21:46
Tagged date : UTC 2018-01-16 08:21:46
Menu
00:00:00.000 : 00:00:00.000
00:08:47.902 : 00:08:47.902
00:13:14.335 : 00:13:14.335
00:17:42.228 : 00:17:42.228
00:25:11.593 : 00:25:11.593
00:32:46.256 : 00:32:46.256
00:37:17.068 : 00:37:17.068
00:44:39.260 : 00:44:39.260
00:51:44.101 : 00:51:44.101
00:57:57.224 : 00:57:57.224
01:03:19.337 : 01:03:19.337
01:06:17.140 : 01:06:17.140
01:10:05.535 : 01:10:05.535
01:16:40.679 : 01:16:40.679
01:22:10.092 : 01:22:10.092
01:27:31.788 : 01:27:31.788



Данный рип предназначен для просмотра на мобильных гаджетах с поддержкой формата mp4



   Похожие торренты   Торрент   Размер 
В этой теме нет новых непрочитанных сообщений. Человек – швейцарский нож / Swiss Army Man (2016) BDRip 720p | iTunes

4431 | 1010

5.71 ГБ

В этой теме нет новых непрочитанных сообщений. Человек – швейцарский нож / Swiss Army Man (2016) BDRip 720p от HELLYWOOD | iTunes

12 | 1

5.57 ГБ

В этой теме нет новых непрочитанных сообщений. Человек – швейцарский нож / Swiss Army Man (2016) BDRip 720p от Scarabey | iTunes

106 | 4

4.73 ГБ

В этой теме нет новых непрочитанных сообщений. Человек – швейцарский нож / Swiss Army Man (2016) BDRip-AVC от HELLYWOOD | iTunes

116 | 5

1.46 ГБ

В этой теме нет новых непрочитанных сообщений. Человек – швейцарский нож / Swiss Army Man (2016) BDRip от MegaPeer | iTunes

74 | 1

1.41 ГБ

В этой теме нет новых непрочитанных сообщений. Человек – швейцарский нож / Swiss Army Man (2016) BDRip 1080p | iTunes

2043 | 732

12.97 ГБ

В этой теме нет новых непрочитанных сообщений. Человек – швейцарский нож / Swiss Army Man (2016) BDRip 1080p от ExKinoRay | iTunes

342 | 227

9.35 ГБ




Вы не можете начинать темы
Вы не можете отвечать на сообщения
Вы не можете редактировать свои сообщения
Вы не можете удалять свои сообщения
Вы не можете добавлять вложения

Перейти:  
Для Мосгорсуда, Роскомнадзора и рекламодателей: mosgorsud-torrent[собачка]yandex.ru
 Вход
ppkBB3cker v.2 © 2008-2014 @ PPK
[ Time : 0.061s | 18 Queries | GZIP : Off ]

cron