img image001 image001 image001 image001 image001 image001 image001 image001 image001 image001 image001 image001 image001 image001 image001 image001
Planets Sun Sun Sun
Статистика раздачи
Автор: Nickolas3434 | Размер: 696.48 МБ | Добавлен: 18 янв 2018
Раздают: 0    Качают: 0
Скачать торрент
Скачать торрент
Описание торрента

СообщениеДобавлено: 18 янв 2018 

Информация о фильме
Название: Дом ночных призраков
Оригинальное название: House On Haunted Hill
Год выхода: 1999
Жанр: Ужасы, триллер, детектив
Режиссер: Уильям Мэлоун
В ролях: Джеффри Раш, Фамке Янссен, Тэй Диггз, Питер Галлахер, Крис Кэттэн, Эли Лартер, Бриджит Уилсон, Макс Перлих, Джеффри Комбс, Дик Биби, Славица Йован, Лиза Лоб, Джеймс Марстерс
О фильме: Эксцентричный миллионер по имени Стивен Прайс решает отметить день рождения своей горячо нелюбимой жены Эвилен в заброшенном доме с жутким прошлым. В нём много лет назад некий доктор-маньяк проводил бесчеловечные эксперименты и зверски мучил своих пациентов. Список приглашённых кто-то загадочным образом подменяет, и в дом на холме приезжают совершенно незнакомые друг другу люди. Прайс предлагает миллион долларов каждому, кто останется в доме до утра. Душераздирающая вечеринка начинается!

Страна: США
Студия: CLT-UFA International, Dark Castle Entertainment, Helkon Media AG, J&M Entertainment
Продолжительность: 01:32:42
Перевод: Профессиональный (многоголосый, закадровый) (DVD Expert)
Субтитры: Нет
Файл
Кодек: XviD
Качество: HDRip
Видео: 624x352 (1.77:1), 24 fps, XviD build 73 ~912 kbps avg, 0.17 bit/pixel
Звук: 48 kHz, MPEG Layer 3, 2 ch, ~128.00 kbps avg
General
Complete name : House.On.Haunted.Hill.1999.HDRip.ot.Portablius.avi
Format : AVI
Format/Info : Audio Video Interleave
File size : 696 MiB
Duration : 1 h 32 min
Overall bit rate : 1 050 kb/s
Writing application : VirtualDubMod 1.5.10.3 | www.virtualdub-fr.org || (build 2550/release)
Writing library : VirtualDubMod build 2550/release
Video
ID : 0
Format : MPEG-4 Visual
Format profile : Advanced [email protected]
Format settings, BVOP : 1
Format settings, QPel : No
Format settings, GMC : No warppoints
Format settings, Matrix : Custom
Codec ID : XVID
Codec ID/Hint : XviD
Duration : 1 h 32 min
Bit rate : 913 kb/s
Width : 624 pixels
Height : 352 pixels
Display aspect ratio : 16:9
Frame rate : 24.000 FPS
Color space : YUV
Chroma subsampling : 4:2:0
Bit depth : 8 bits
Scan type : Progressive
Compression mode : Lossy
Bits/(Pixel*Frame) : 0.173
Stream size : 605 MiB (87%)
Writing library : XviD 73
Audio
ID : 1
Format : MPEG Audio
Format version : Version 1
Format profile : Layer 3
Codec ID : 55
Codec ID/Hint : MP3
Duration : 1 h 32 min
Bit rate mode : Constant
Bit rate : 128 kb/s
Channel(s) : 2 channels
Sampling rate : 48.0 kHz
Compression mode : Lossy
Stream size : 84.9 MiB (12%)
Alignment : Aligned on interleaves
Interleave, duration : 42 ms (1.00 video frame)
Interleave, preload duratio : 504 ms
Writing library : LAME3.99r
Encoding settings : -m s -V 4 -q 2 -lowpass 17 -b 128



   Похожие торренты   Торрент   Размер 
В этой теме нет новых непрочитанных сообщений. Дом ночных призраков / House On Haunted Hill (1999) HDRip от Scarabey | D

104 | 8

1.45 ГБ

В этой теме нет новых непрочитанных сообщений. Дом ночных призраков / House On Haunted Hill (1999) HDRip от Scarabey | D

35 | 3

744.82 МБ

В этой теме нет новых непрочитанных сообщений. Дом ночных призраков / House On Haunted Hill (1999) BDRemux

5 | 3

22.07 ГБ

В этой теме нет новых непрочитанных сообщений. Дом ночных призраков / House on Haunted Hill (1999) BDRip от HQCLUB

99 | 10

1.45 ГБ

В этой теме нет новых непрочитанных сообщений. Дом ночных призраков / House On Haunted Hill (1999) BDRip 720p | D, P, P2, A

11 | 9

4.96 ГБ

В этой теме нет новых непрочитанных сообщений. Дом ночных призраков / House On Haunted Hill (1999) BDRip 1080p | D, P, P2, A

0 | 0

14.99 ГБ

В этой теме нет новых непрочитанных сообщений. Дом ночных призраков / House On Haunted Hill (1999) BDRip 1080p | D, P, P2, A

4 | 2

10.06 ГБ




Вы не можете начинать темы
Вы не можете отвечать на сообщения
Вы не можете редактировать свои сообщения
Вы не можете удалять свои сообщения
Вы не можете добавлять вложения

Перейти:  
Для Мосгорсуда, Роскомнадзора и рекламодателей: mosgorsud-torrent[собачка]yandex.ru
 Вход
ppkBB3cker v.2 © 2008-2014 @ PPK
[ Time : 3.109s | 19 Queries | GZIP : Off ]

cron