img image001 image001 image001 image001 image001 image001 image001 image001 image001 image001 image001 image001 image001 image001 image001

Planets Sun Sun Sun
Статистика раздачи
Автор: Nickolas3434 | Размер: 6.54 ГБ | Добавлен: 12 янв 2018
Раздают: 8    Качают: 4
Скачать торрент
Скачать торрент
Описание торрента

СообщениеДобавлено: 12 янв 2018 

Мир без конца

World Without End

«CinemaScope's First Science-Fiction Thriller Hurls You into the Year 2508!»



Страна: США
Жанр: фантастика, мелодрама, приключения
Год выпуска: 1956
Продолжительность: 01:20:21
Перевод: Любительский (одноголосый)Rollinghead


Режиссер: Эдвард Берндс / Edward Bernds


В ролях: Хью Марлоу, Нэнси Гейтс, Нельсон Ли, Род Тейлор, Ширли Паттерсон, Лиза Монтелл, Кристофер Дарк (Henry «Hank» Jaffe), Бут Колман, Эверетт Гласс, Стэнли Фрайзер (Elda), Дэвид Элперт (Public Relations Officer, в титрах не указан), Джон Блейфер (Jule, в титрах не указан)


Описание: 2200 год. Четыре космонавта командир Джон Борден, Херберт Эллис, доктор Элдоном Галбрайт и Генри Джаффе, возвращающихся из первой миссии человечества на Марс. Ракета RXM становится жертвой случайного ускорения, и на скорости свыше 100 миль в секунду проваливается сквозь искривлённое пространство в будущее и приземляется в цепи заснеженных гор на планете, чья атмосфера идентична Земле. Позже космонавты выясняют, что они оказались в 26 веке на Земле, опустошенной атомной войной. Наши герои встретятся с отвратительный мутантами, гигантскими пауками, красавицами в коротких платьях, и ревнителями старой веры - которые борются, чтобы сохранить человечество и построить новый мир.





Семпл





Качество: BDRip 1080p
Контейнер: MKV
Видео: AVC, 1920x752 (2.553), 11038 kbps, 24 fps, 0,319 bpp
Аудио №1: русский / AC3 / 2.0 / 48 kHz / 192 kbps / VO ( Rollinghead )
Аудио №2: английский / AC3 / 2.0 / 48 kHz / 192 kbps
Навигация по главам: есть


Формат : Matroska
Версия формата : Version 2
Размер файла : 6,54 Гбайт
Продолжительность : 1 ч. 20 м.
Общий поток : 11,7 Мбит/сек
Название фильма : = Мир бесконечен / World Without End (1956) BDRip 1080p - KORSAR =
Дата кодирования : UTC 2018-01-08 09:07:20
Программа кодирования : mkvmerge v5.8.0 ('No Sleep / Pillow') built on Sep 2 2012 15:37:04
Библиотека кодирования : libebml v1.2.3 + libmatroska v1.3.0
Attachment : Yes
Видео
Идентификатор : 1
Формат : AVC
Формат/Информация : Advanced Video Codec
Профиль формата : [email protected]
Параметр CABAC формата : Да
Параметр ReFrames формата : 5 кадров
Идентификатор кодека : V_MPEG4/ISO/AVC
Продолжительность : 1 ч. 20 м.
Битрейт : 11,0 Мбит/сек
Ширина : 1920 пикселей
Высота : 752 пикселя
Соотношение сторон : 2,553
Режим частоты кадров : Постоянный
Частота кадров : 24,000 кадра/сек
Цветовое пространство : YUV
Субдискретизация насыщенности : 4:2:0
Битовая глубина : 8 бит
Тип развёртки : Прогрессивная
Бит/(Пиксели*Кадры) : 0.319
Размер потока : 6,20 Гбайт (95%)
Заголовок : Мир бесконечен / World Without End (1956) BDRip 1080p - KORSAR
Библиотека кодирования : x264 core 148 r2744kMod b97ae06
Настройки программы : cabac=1 / ref=5 / deblock=1:-2:-2 / analyse=0x3:0x113 / me=umh / subme=11 / psy=1 / fade_compensate=0.00 / psy_rd=1.00:0.00 / mixed_ref=1 / me_range=32 / chroma_me=1 / trellis=2 / 8x8dct=1 / cqm=0 / deadzone=21,11 / fast_pskip=0 / chroma_qp_offset=-2 / threads=12 / lookahead_threads=3 / sliced_threads=0 / nr=0 / decimate=1 / interlaced=0 / bluray_compat=0 / constrained_intra=0 / bframes=12 / b_pyramid=2 / b_adapt=2 / b_bias=0 / direct=3 / weightb=1 / open_gop=0 / weightp=2 / keyint=240 / keyint_min=24 / scenecut=40 / intra_refresh=0 / rc_lookahead=60 / rc=crf / mbtree=0 / crf=18.2000 / qcomp=0.60 / qpmin=0 / qpmax=39 / qpstep=4 / vbv_maxrate=50000 / vbv_bufsize=62500 / crf_max=0.0 / nal_hrd=none / filler=0 / ip_ratio=1.40 / pb_ratio=1.30 / aq=1:0.80
Язык : English
Default : Да
Forced : Нет
Основные цвета : BT.709
Характеристики трансфера : BT.709
Коэффициенты матрицы : BT.709
Аудио #1
Идентификатор : 2
Формат : AC-3
Формат/Информация : Audio Coding 3
Расширение режима : CM (complete main)
Параметр Endianness формата : Big
Идентификатор кодека : A_AC3
Продолжительность : 1 ч. 20 м.
Вид битрейта : Постоянный
Битрейт : 192 Кбит/сек
Каналы : 2 канала
Расположение каналов : Front: L R
Частота : 48,0 КГц
Битовая глубина : 16 бит
Метод сжатия : С потерями
Размер потока : 110 Мбайт (2%)
Заголовок : VO ( Rollinghead )
Язык : Russian
Default : Да
Forced : Нет
Аудио #2
Идентификатор : 3
Формат : AC-3
Формат/Информация : Audio Coding 3
Расширение режима : CM (complete main)
Параметр Endianness формата : Big
Идентификатор кодека : A_AC3
Продолжительность : 1 ч. 20 м.
Вид битрейта : Постоянный
Битрейт : 192 Кбит/сек
Каналы : 2 канала
Расположение каналов : Front: L R
Частота : 48,0 КГц
Битовая глубина : 16 бит
Метод сжатия : С потерями
Размер потока : 110 Мбайт (2%)
Язык : English
Default : Нет
Forced : Нет
Меню
00:00:00.000 : en:00:00:00.000
00:05:54.083 : en:00:05:54.083
00:13:53.500 : en:00:13:53.500
00:21:24.375 : en:00:21:24.375
00:27:44.917 : en:00:27:44.917
00:34:52.042 : en:00:34:52.042
00:41:17.583 : en:00:41:17.583
00:49:22.875 : en:00:49:22.875
00:56:05.375 : en:00:56:05.375
01:02:02.292 : en:01:02:02.292
01:09:11.167 : en:01:09:11.167
01:12:54.958 : en:01:12:54.958








   Похожие торренты   Торрент   Размер 
В этой теме нет новых непрочитанных сообщений. Мир без конца / World Without End (1956) HDRip от Koenig | L1

27 | 10

1.09 ГБ

В этой теме нет новых непрочитанных сообщений. Мир без конца / Бесконечный мир / World Without End [s01] (2012) BDRip 720p от HDClub

30 | 77

27.71 ГБ

В этой теме нет новых непрочитанных сообщений. Мир без конца / Бесконечный мир / World Without End [01-08 из 08] (2012) HDRip от -=HD-NET=-

165 | 36

4.59 ГБ

В этой теме нет новых непрочитанных сообщений. Мир без конца / World Without End [01x01-08 из 08] (2012) DVDRip-AVC от Youtracker | P

2 | 2

7.59 ГБ

В этой теме нет новых непрочитанных сообщений. Мир без конца / World Without End [01x01-08 из 08] (2012) DVDRip от Youtracker | P

10 | 9

2.97 ГБ

В этой теме нет новых непрочитанных сообщений. Мир без конца / World Without End [01x01-08 из 08] (2012) 2xDVD9 R5 от Youtracker | P

2 | 1

14.95 ГБ

В этой теме нет новых непрочитанных сообщений. Мир без конца / World Without End [01x01-08 из 08] (2012) DVDRip от Youtracker | P

11 | 2

7.6 ГБ




Вы не можете начинать темы
Вы не можете отвечать на сообщения
Вы не можете редактировать свои сообщения
Вы не можете удалять свои сообщения
Вы не можете добавлять вложения

Перейти:  
Для Мосгорсуда, Роскомнадзора и рекламодателей: mosgorsud-torrent[собачка]yandex.ru
 Вход
ppkBB3cker v.2 © 2008-2014 @ PPK
[ Time : 0.050s | 18 Queries | GZIP : Off ]

cron