img image001 image001 image001 image001 image001 image001 image001 image001 image001 image001 image001 image001 image001 image001 image001

Planets Sun Sun Sun
Статистика раздачи
Автор: Nickolas3434 | Размер: 6.8 ГБ | Добавлен: 04 дек 2017
Раздают: 1    Качают: 0
Скачать торрент
Скачать торрент
Описание торрента

СообщениеДобавлено: 04 дек 2017 

Информация о фильме
Название: Смотри по сторонам / Лучше берегись
Оригинальное название: Better Watch Out
Год выхода: 2016
Жанр: Триллер, Комедия, Ужасы
Режиссер: Крис Пековер
В ролях: Патрик Варбертон, Вирджиния Мэдсен, Дакре Монтгомери, Оливия ДеДжонг, Леви Миллер, Эд Оксенбульд, Брендан Клиркин, Тара Борг, Алекс Микич, Триша Мэри Хеннэси
О фильме:
В доме на тихой пригородной улочке няня пытается защитить двенадцатилетнего мальчика от взломщиков, но вскоре обнаруживает, что это далеко не обыкновенное вторжение.

Страна: Австралия, США
Студия: Storm Vision Entertainment, Best Medicine Productions
Продолжительность: 1:28:50
Перевод: Любительский одноголосый закадровый (BadBajo)
БЕЗ КАКОЙ-ЛИБО РЕКЛАМЫ!
Файл
Кодек: H.264
Качество: BDRip 1080p
Видео: 1920х808, 9 059 Kbps, 24.000 FPS (Geckos)
Звук:
Русский: AC3, 6 ch, 384 Kbps (VO, BadBajo)
Английский: DTS, 6 ch, 1 509 Kbps
Субтитры: Английские (отключаемые)
General
Unique ID : 248758390587926520316899769737755021568 (0xBB251F92E3625F8C8C8E88ABD8F8D100)
Complete name : F:Films 2017Better.Watch.Out.2017.BDRip.1080p.BadBajo.mkv
Format : Matroska
Format version : Version 4 / Version 2
File size : 6.80 GiB
Duration : 1 h 28 min
Overall bit rate : 11.0 Mb/s
Movie name : Better.Watch.Out.2016.BDRip.1080p.BadBajo
Encoded date : UTC 2017-12-02 22:50:11
Writing application : mkvmerge v18.0.0 ('Apricity') 32-bit
Writing library : libebml v1.3.5 + libmatroska v1.4.8
Video
ID : 1
Format : AVC
Format/Info : Advanced Video Codec
Format profile : [email protected]
Format settings : CABAC / 5 Ref Frames
Format settings, CABAC : Yes
Format settings, RefFrames : 5 frames
Codec ID : V_MPEG4/ISO/AVC
Duration : 1 h 28 min
Bit rate : 9 059 kb/s
Width : 1 920 pixels
Height : 808 pixels
Display aspect ratio : 2.40:1
Frame rate mode : Constant
Frame rate : 24.000 FPS
Color space : YUV
Chroma subsampling : 4:2:0
Bit depth : 8 bits
Scan type : Progressive
Bits/(Pixel*Frame) : 0.243
Stream size : 5.62 GiB (83%)
Writing library : x264 core 152 r2851 ba24899
Encoding settings : cabac=1 / ref=5 / deblock=1:0:0 / analyse=0x3:0x133 / me=umh / subme=7 / psy=1 / psy_rd=1.00:0.00 / mixed_ref=1 / me_range=16 / chroma_me=1 / trellis=1 / 8x8dct=1 / cqm=0 / deadzone=21,11 / fast_pskip=0 / chroma_qp_offset=-2 / threads=24 / lookahead_threads=4 / sliced_threads=0 / nr=0 / decimate=1 / interlaced=0 / bluray_compat=0 / constrained_intra=0 / bframes=3 / b_pyramid=2 / b_adapt=1 / b_bias=0 / direct=1 / weightb=1 / open_gop=0 / weightp=2 / keyint=250 / keyint_min=23 / scenecut=40 / intra_refresh=0 / rc_lookahead=40 / rc=2pass / mbtree=1 / bitrate=9059 / ratetol=1.0 / qcomp=0.60 / qpmin=0 / qpmax=69 / qpstep=4 / cplxblur=20.0 / qblur=0.5 / ip_ratio=1.40 / aq=1:1.00
Language : English
Default : Yes
Forced : Yes
Audio #1
ID : 2
Format : AC-3
Format/Info : Audio Coding 3
Codec ID : A_AC3
Duration : 1 h 28 min
Bit rate mode : Constant
Bit rate : 384 kb/s
Channel(s) : 6 channels
Channel positions : Front: L C R, Side: L R, LFE
Sampling rate : 48.0 kHz
Frame rate : 31.250 FPS (1536 SPF)
Bit depth : 16 bits
Compression mode : Lossy
Delay relative to video : 1 s 899 ms
Stream size : 244 MiB (4%)
Title : BadBajo
Language : Russian
Service kind : Complete Main
Default : Yes
Forced : Yes
Audio #2
ID : 3
Format : DTS
Format/Info : Digital Theater Systems
Codec ID : A_DTS
Duration : 1 h 28 min
Bit rate mode : Constant
Bit rate : 1 509 kb/s
Channel(s) : 6 channels
Channel positions : Front: L C R, Side: L R, LFE
Sampling rate : 48.0 kHz
Frame rate : 93.750 FPS (512 SPF)
Bit depth : 24 bits
Compression mode : Lossy
Stream size : 959 MiB (14%)
Language : English
Default : No
Forced : No
Text
ID : 4
Format : UTF-8
Codec ID : S_TEXT/UTF8
Codec ID/Info : UTF-8 Plain Text
Duration : 1 h 23 min
Bit rate : 55 b/s
Count of elements : 1262
Stream size : 34.1 KiB (0%)
Language : English
Default : No
Forced : No




   Похожие торренты   Торрент   Размер 
В этой теме нет новых непрочитанных сообщений. Смотри по сторонам / Лучше берегись / Better Watch Out (2016) BDRip 1080p | L1

38 | 5

7.75 ГБ

В этой теме нет новых непрочитанных сообщений. Смотри по сторонам (Лучше берегись) / Better Watch Out (2016) WEB-DL 1080p | BadBajo

26 | 0

3.31 ГБ

В этой теме нет новых непрочитанных сообщений. Смотри по сторонам / Лучше берегись / Better Watch Out (2016) WEB-DLRip от MegaPeer | L1

0 | 0

1.44 ГБ

В этой теме нет новых непрочитанных сообщений. Смотри по сторонам / Лучше берегись / Better Watch Out (2016) WEB-DLRip-AVC от ExKinoRay | L1

87 | 12

746.7 МБ

В этой теме нет новых непрочитанных сообщений. Смотри по сторонам / Лучше берегись / Better Watch Out (2016) HDRip-AVC от ExKinoRay | L1

50 | 2

1.49 ГБ

В этой теме нет новых непрочитанных сообщений. Ты лучше смотри в оба / You Better Watch Out (1980) BDRip-AVC от E76 | A

86 | 105

3.11 ГБ

В этой теме нет новых непрочитанных сообщений. Ты лучше смотри в оба / Christmas Evil / You Better Watch Out (1980) BDRip от HQCLUB | A

4 | 1

1.45 ГБ




Вы не можете начинать темы
Вы не можете отвечать на сообщения
Вы не можете редактировать свои сообщения
Вы не можете удалять свои сообщения
Вы не можете добавлять вложения

Перейти:  
Для Мосгорсуда, Роскомнадзора и рекламодателей: mosgorsud-torrent[собачка]yandex.ru
 Вход
ppkBB3cker v.2 © 2008-2014 @ PPK
[ Time : 0.036s | 18 Queries | GZIP : Off ]

cron