img image001 image001 image001 image001 image001 image001 image001 image001 image001 image001 image001 image001 image001 image001 image001

Planets Sun Sun Sun
Статистика раздачи
Автор: Nickolas3434 | Размер: 9.51 ГБ | Добавлен: 04 дек 2017
Раздают: 21    Качают: 6
Скачать торрент
Скачать торрент
Описание торрента

СообщениеДобавлено: 04 дек 2017 

Информация о фильме
Название: Ван Хельсинг
Оригинальное название: Van Helsing
Год выхода: 2004
Жанр: фэнтези, боевик, триллер, драма, детектив, приключения
Режиссер: Стивен Соммерс
В ролях: Хью Джекман, Кейт Бекинсейл, Ричард Роксбург, Дэвид Уэнэм Шулер Хенсли, Елена Анайя, Уилл Кемп, Кевин Дж. О’Коннор, Алан Армстронг, Сильвия Коллока
О фильме:
Глубоко в Карпатах лежит таинственная страна Трансильвания — мир, в котором зло встречается на каждом шагу, мир, в котором опасность оживает с заходом солнца, и где монстры, живущие в глубине человеческих кошмаров, обретают форму. В этот мир попадает легендарный охотник на чудовищ Ван Хельсинг, рождённый на страницах романа «Дракула» Брэма Стокера. В своей непрерывной битве против сил зла и за освобождение мира от порождений ада, Ван Хельсинг, по заданию секретного общества, отправляется в Трансильванию, чтобы скрестить оружие со смертельно опасным, наделённым неведомой силой графом Дракулой. На помощь ему внезапно приходит бесстрашная Анна Валери, поставившая целью избавить свою семью от векового проклятья, наложенного убитым вампиром.

Страна: США
Студия: Universal Pictures
Продолжительность: 02:11:31
Перевод: Профессиональный дублированный, Двухголосый закадровый, Авторский одноголосый
Файл
Кодек: HEVC x265 10 bit
Качество: BDRip-HEVC 1080p
Видео: 1920x1040 (1.85:1), 7649 Кбит/сек, 0.160 бит/(Пиксели*Кадры), 23,976 кадр/сек (24000/1001), HEVC (Main10[email protected]@High) 10 бит
Звук:
Русская, AC3, 448 Кбит/сек, Front: L C R, Side: L R, LFE, 48,0 КГц (Дубляж R5)
Русская, AC3, 448 Кбит/сек, Front: L C R, Side: L R, LFE, 48,0 КГц (DVO Tycoon)
Русская, AC3, 448 Кбит/сек, Front: L C R, Side: L R, LFE, 48,0 КГц (AVO Гаврилов)
Русская, AC3, 448 Кбит/сек, Front: L C R, Side: L R, LFE, 48,0 КГц (AVO Живов)
Русская, AC3, 448 Кбит/сек, Front: L C R, Side: L R, LFE, 48,0 КГц (AVO Рудой)
Английская, AC3, 448 Кбит/сек, Front: L C R, Side: L R, LFE, 48,0 КГц (Оригинал)
Субтитры: русские, английские
Разделение по главам: есть
Семпл
General
Unique ID : 188645067975405850688590769096751234862 (0x8DEBB7F16ABBC17EB050E3542522BF2E)
Complete name : I:HEVC 210 BITVan Helsing_2004_BDRip_1080p_[HEVC]_10bit.mkv
Format : Matroska
Format version : Version 4 / Version 2
File size : 9.51 GiB
Duration : 2 h 11 min
Overall bit rate : 10.3 Mb/s
Encoded date : UTC 2017-12-04 10:51:08
Writing application : mkvmerge v9.9.0 ('Pick Up') 64bit
Writing library : libebml v1.3.4 + libmatroska v1.4.5
Cover : Yes
Attachments : cover.png
Video
ID : 1
Format : HEVC
Format/Info : High Efficiency Video Coding
Format profile : Main [email protected]@High
Codec ID : V_MPEGH/ISO/HEVC
Duration : 2 h 11 min
Bit rate : 7 649 kb/s
Width : 1 920 pixels
Height : 1 040 pixels
Display aspect ratio : 1.85:1
Frame rate mode : Constant
Frame rate : 23.976 (24000/1001) FPS
Color space : YUV
Chroma subsampling : 4:2:0
Bit depth : 10 bits
Bits/(Pixel*Frame) : 0.160
Stream size : 7.03 GiB (74%)
Writing library : x265 2.5+14-2718cb5dd67f:[Windows][GCC 7.1.0][64 bit] 10bit
Encoding settings : cpuid=1173503 / frame-threads=4 / numa-pools=16 / wpp / no-pmode / no-pme / no-psnr / no-ssim / log-level=2 / input-csp=1 / input-res=1920x1040 / interlace=0 / total-frames=0 / level-idc=51 / high-tier=1 / uhd-bd=0 / ref=4 / no-allow-non-conformance / no-repeat-headers / annexb / no-aud / no-hrd / info / hash=0 / no-temporal-layers / open-gop / min-keyint=23 / keyint=240 / bframes=6 / b-adapt=2 / no-b-pyramid / bframe-bias=0 / rc-lookahead=40 / lookahead-slices=4 / scenecut=40 / no-intra-refresh / ctu=64 / min-cu-size=8 / no-rect / no-amp / max-tu-size=32 / tu-inter-depth=3 / tu-intra-depth=3 / limit-tu=4 / rdoq-level=0 / dynamic-rd=0.00 / no-ssim-rd / signhide / no-tskip / nr-intra=0 / nr-inter=0 / no-constrained-intra / no-strong-intra-smoothing / max-merge=3 / limit-refs=3 / no-limit-modes / me=3 / subme=5 / merange=57 / temporal-mvp / weightp / weightb / no-analyze-src-pics / deblock=-3:-3 / no-sao / no-sao-non-deblock / rd=4 / no-early-skip / rskip / no-fast-intra / no-tskip-fast / no-cu-lossless / no-b-intra / no-splitrd-skip / rdpenalty=0 / psy-rd=4.00 / psy-rdoq=0.00 / no-rd-refine / analysis-reuse-mode=0 / no-lossless / cbqpoffs=0 / crqpoffs=0 / rc=crf / crf=20.0 / qcomp=0.60 / qpstep=1 / stats-write=0 / stats-read=0 / vbv-maxrate=160000 / vbv-bufsize=160000 / vbv-init=0.9 / crf-max=0.0 / crf-min=0.0 / ipratio=1.10 / pbratio=1.00 / aq-mode=0 / aq-strength=0.00 / no-cutree / zone-count=1 / zones: / start-frame=175533 / end-frame=189361 / qp=35 / no-strict-cbr / qg-size=32 / rc-grain / qpmax=51 / qpmin=0 / no-const-vbv / sar=0 / overscan=0 / videoformat=5 / range=0 / colorprim=2 / transfer=2 / colormatrix=1 / chromaloc=0 / display-window=0 / max-cll=0,0 / min-luma=0 / max-luma=1023 / log2-max-poc-lsb=8 / vui-timing-info / vui-hrd-info / slices=1 / opt-qp-pps / opt-ref-list-length-pps / no-multi-pass-opt-rps / scenecut-bias=0.05 / no-opt-cu-delta-qp / no-aq-motion / no-hdr / no-hdr-opt / no-dhdr10-opt / analysis-reuse-level=5 / scale-factor=0 / refine-intra=0 / refine-inter=0 / refine-mv=0 / no-limit-sao / ctu-info=0
Default : Yes
Forced : Yes
Color range : Limited
Matrix coefficients : BT.709
Audio #1
ID : 2
Format : AC-3
Format/Info : Audio Coding 3
Format settings, Endianness : Big
Codec ID : A_AC3
Duration : 2 h 11 min
Bit rate mode : Constant
Bit rate : 448 kb/s
Channel(s) : 6 channels
Channel positions : Front: L C R, Side: L R, LFE
Sampling rate : 48.0 kHz
Frame rate : 31.250 FPS (1536 SPF)
Bit depth : 16 bits
Compression mode : Lossy
Stream size : 421 MiB (4%)
Title : Dub, R5
Language : Russian
Service kind : Complete Main
Default : Yes
Forced : No
Audio #2
ID : 3
Format : AC-3
Format/Info : Audio Coding 3
Format settings, Endianness : Big
Codec ID : A_AC3
Duration : 2 h 11 min
Bit rate mode : Constant
Bit rate : 448 kb/s
Channel(s) : 6 channels
Channel positions : Front: L C R, Side: L R, LFE
Sampling rate : 48.0 kHz
Frame rate : 31.250 FPS (1536 SPF)
Bit depth : 16 bits
Compression mode : Lossy
Stream size : 422 MiB (4%)
Title : DVO, Tycoon-studio
Language : Russian
Service kind : Complete Main
Default : No
Forced : No
Audio #3
ID : 4
Format : AC-3
Format/Info : Audio Coding 3
Format settings, Endianness : Big
Codec ID : A_AC3
Duration : 2 h 11 min
Bit rate mode : Constant
Bit rate : 448 kb/s
Channel(s) : 6 channels
Channel positions : Front: L C R, Side: L R, LFE
Sampling rate : 48.0 kHz
Frame rate : 31.250 FPS (1536 SPF)
Bit depth : 16 bits
Compression mode : Lossy
Stream size : 421 MiB (4%)
Title : AVO, А.Гаврилов
Language : Russian
Service kind : Complete Main
Default : No
Forced : No
Audio #4
ID : 5
Format : AC-3
Format/Info : Audio Coding 3
Format settings, Endianness : Big
Codec ID : A_AC3
Duration : 2 h 11 min
Bit rate mode : Constant
Bit rate : 448 kb/s
Channel(s) : 6 channels
Channel positions : Front: L C R, Side: L R, LFE
Sampling rate : 48.0 kHz
Frame rate : 31.250 FPS (1536 SPF)
Bit depth : 16 bits
Compression mode : Lossy
Stream size : 422 MiB (4%)
Title : AVO, Ю.Живов
Language : Russian
Service kind : Complete Main
Default : No
Forced : No
Audio #5
ID : 6
Format : AC-3
Format/Info : Audio Coding 3
Format settings, Endianness : Big
Codec ID : A_AC3
Duration : 2 h 11 min
Bit rate mode : Constant
Bit rate : 448 kb/s
Channel(s) : 6 channels
Channel positions : Front: L C R, Side: L R, LFE
Sampling rate : 48.0 kHz
Frame rate : 31.250 FPS (1536 SPF)
Bit depth : 16 bits
Compression mode : Lossy
Stream size : 422 MiB (4%)
Title : AVO, Е.Рудой
Language : Russian
Service kind : Complete Main
Default : No
Forced : No
Audio #6
ID : 7
Format : AC-3
Format/Info : Audio Coding 3
Format settings, Endianness : Big
Codec ID : A_AC3
Duration : 2 h 11 min
Bit rate mode : Constant
Bit rate : 448 kb/s
Channel(s) : 6 channels
Channel positions : Front: L C R, Side: L R, LFE
Sampling rate : 48.0 kHz
Frame rate : 31.250 FPS (1536 SPF)
Bit depth : 16 bits
Compression mode : Lossy
Stream size : 421 MiB (4%)
Title : Original
Language : English
Service kind : Complete Main
Default : No
Forced : No
Text #1
ID : 8
Format : UTF-8
Codec ID : S_TEXT/UTF8
Codec ID/Info : UTF-8 Plain Text
Duration : 2 h 2 min
Bit rate : 52 b/s
Count of elements : 846
Stream size : 47.6 KiB (0%)
Title : Full Rus
Language : Russian
Default : No
Forced : No
Text #2
ID : 9
Format : UTF-8
Codec ID : S_TEXT/UTF8
Codec ID/Info : UTF-8 Plain Text
Duration : 1 h 58 min
Bit rate : 42 b/s
Count of elements : 1157
Stream size : 36.9 KiB (0%)
Title : Full Eng
Language : English
Default : No
Forced : No
Menu
00:00:00.000 : :It's Alive
00:07:49.218 : :The Vatican's Avenger
00:13:42.613 : :The Order
00:20:14.503 : :Werewolf Hunters
00:23:12.724 : :Welcome to Transylvania
00:33:58.036 : :His Name Is Van Helsing
00:38:22.257 : :Looking for Answers
00:40:34.265 : :Curse of the Werewolf
00:48:41.793 : :Castle Frankenstein
00:53:18.862 : :Dracula's Children
01:02:07.055 : :Old Acquaintances
01:04:31.784 : :Failure
01:08:42.952 : :The Living Painting
01:09:54.982 : :The Frankenstein Monster
01:14:17.703 : :Hell on Wheels
01:18:55.313 : :Mark of the Wolf
01:23:57.866 : :The Monster's Ball
01:29:19.103 : :Van Helsing's Vow
01:31:11.340 : :The Door to Dracula
01:37:30.970 : :The Cure
01:40:34.528 : :Life for My Children
01:43:46.345 : :You Can Go When You're Dead
01:45:56.808 : :The Spawning
01:50:21.197 : :The Only Way
01:55:16.075 : :The Left Hand of God
01:57:08.396 : :Sacrifice
01:58:42.240 : :Reunion
02:02:01.188 : :End Titles

Релиз от: от XuMuK



   Похожие торренты   Торрент   Размер 
В этой теме нет новых непрочитанных сообщений. Ван Хельсинг / Van Helsing (2004) BDRip 1080p

279 | 21

5.77 ГБ

В этой теме нет новых непрочитанных сообщений. Ван Хельсинг / Van Helsing (2004) BDRip 1080p

138 | 18

11.55 ГБ

В этой теме нет новых непрочитанных сообщений. Ван Хельсинг / Van Helsing (2004) BDRip 1080p от marcury

3 | 3

18.53 ГБ

В этой теме нет новых непрочитанных сообщений. Ван Хельсинг / Van Helsing (2004) BDRip 1080p от Kinobomond

2 | 3

11.23 ГБ

В этой теме нет новых непрочитанных сообщений. Ван Хельсинг / Van Helsing (2004) BDRip 1080p Rip by Neofilm

5 | 6

7.87 ГБ

В этой теме нет новых непрочитанных сообщений. Зомби по имени Шон / Shaun of the Dead (2004) BDRip-HEVC 1080p от ХиМиК | P, P2

3 | 0

5.22 ГБ

В этой теме нет новых непрочитанных сообщений. Блэйд: Трилогия / Blade: Trilogy (1998-2004) BDRip-HEVC 1080p от ХиМиК | D, A

37 | 11

19.04 ГБ




Вы не можете начинать темы
Вы не можете отвечать на сообщения
Вы не можете редактировать свои сообщения
Вы не можете удалять свои сообщения
Вы не можете добавлять вложения

Перейти:  
Для Мосгорсуда, Роскомнадзора и рекламодателей: mosgorsud-torrent[собачка]yandex.ru
 Вход
ppkBB3cker v.2 © 2008-2014 @ PPK
[ Time : 0.051s | 18 Queries | GZIP : Off ]

cron