img image001 image001 image001 image001 image001 image001 image001 image001 image001 image001 image001 image001 image001 image001 image001

Planets Sun Sun Sun
Статистика раздачи
Автор: Nickolas3434 | Размер: 8.88 ГБ | Добавлен: 04 дек 2017
Раздают: 22    Качают: 9
Скачать торрент
Скачать торрент
Описание торрента

СообщениеДобавлено: 04 дек 2017 

Информация о фильме
Название: Травка
Оригинальное название: Leaves of Grass
Год выхода: 2009
Жанр: Триллер, драма, комедия, криминал
Режиссер: Тим Блэйк Нельсон
В ролях: Эдвард Нортон, Кери Расселл, Тим Блэйк Нельсон, Ричард Дрейфусс, Сьюзен Сарандон, Тай Буррелл, Мелани Лински, Люси ДеВито, Кент Джуд Бернард, Амелия Кэмпбелл, Рендал Ридер, Лео Фабиан
О фильме:
В центре сюжета братья-близнецы, один из которых — успешный преподаватель философии, а другой — его полная противоположность, лодырь, выращивающий марихуану. Однажды преподаватель оказывается вынужден вернуться в родную Оклахому, к брату, где оказывается втянут в опасную аферу против местного наркобарона…

Страна: США
Студия: Class 5 Films, Grand Army Entertainment, Langley Films, Leaves Productions, Millennium Films
Продолжительность: 01:44:37
Перевод: Профессиональный, многоголосый закадровый (Лицензия R5)
Файл
Кодек: x264
Качество: BDRip 1080p
Видео: 1920x1040 (1.85:1), 23.976 fps, AVC, ~8938 Kbps, 0.187 bits/pixel
Звук:
#1: Russian, 48.0 KHz, DTS, 6 ch, 1510 Kbps - Многоголосый закадровый - (Студия Велес) CP-DIGITAL
#2: Ukrainian, 48.0 KHz, AC3, 2 ch, 192 Kbps - Профессиональный двухголосый - 1+1
#3: English, 48.0 KHz, DTS, 6 ch, 1510 Kbps
Субтитры: Русские, английские
Общее
Уникальный идентификатор : 240787642229581417065617105663993033797 (0xB5260356A4E86E5580894B3E8333B445)
Полное имя : D:ФільмиФільми 1080рLeaves.of.Grass.2009.1080p.x264.Rus.Ukr.Eng.mkv
Формат : Matroska
Версия формата : Version 4 / Version 2
Размер файла : 8,88 Гбайт
Продолжительность : 1 ч. 44 м.
Общий поток : 12,2 Мбит/сек
Название фильма : HDv 0day Team
Дата кодирования : UTC 2017-12-03 05:03:47
Программа кодирования : mkvmerge v7.9.0 ('Birds') 64bit
Библиотека кодирования : libebml v1.3.1 + libmatroska v1.4.2
Видео
Идентификатор : 1
Формат : AVC
Формат/Информация : Advanced Video Codec
Профиль формата : [email protected]
Параметр CABAC формата : Да
Параметр RefFrames формата : 4 кадра
Идентификатор кодека : V_MPEG4/ISO/AVC
Продолжительность : 1 ч. 44 м.
Битрейт : 8938 Кбит/сек
Ширина : 1920 пикселей
Высота : 1040 пикселей
Соотношение сторон : 1,85:1
Режим частоты кадров : Постоянный
Частота кадров : 23,976 кадра/сек
Цветовое пространство : YUV
Субдискретизация насыщенности : 4:2:0
Битовая глубина : 8 бит
Тип развёртки : Прогрессивная
Бит/(Пиксели*Кадры) : 0.187
Размер потока : 6,53 Гбайт (74%)
Заголовок : Leaves.of.Grass.2009.720p.BluRay-HDC
Библиотека кодирования : x264 core 107 r1745 4785e8e
Настройки программы : cabac=1 / ref=4 / deblock=1:-3:-3 / analyse=0x3:0x113 / me=umh / subme=9 / psy=1 / psy_rd=1.00:0.00 / mixed_ref=1 / me_range=32 / chroma_me=1 / trellis=2 / 8x8dct=1 / cqm=0 / deadzone=21,11 / fast_pskip=0 / chroma_qp_offset=-2 / threads=6 / sliced_threads=0 / nr=0 / decimate=0 / interlaced=0 / constrained_intra=0 / bframes=5 / b_pyramid=2 / b_adapt=2 / b_bias=0 / direct=3 / weightb=1 / open_gop=0 / weightp=2 / keyint=250 / keyint_min=23 / scenecut=40 / intra_refresh=0 / rc_lookahead=80 / rc=2pass / mbtree=1 / bitrate=8938 / ratetol=1.0 / qcomp=0.80 / qpmin=10 / qpmax=51 / qpstep=4 / cplxblur=20.0 / qblur=0.5 / ip_ratio=1.40 / aq=2:0.80
Язык : English
Default : Нет
Forced : Нет
Аудио #1
Идентификатор : 2
Формат : DTS
Формат/Информация : Digital Theater Systems
Режим : 16
Параметр Endianness формата : Big
Идентификатор кодека : A_DTS
Продолжительность : 1 ч. 44 м.
Вид битрейта : Постоянный
Битрейт : 1509 Кбит/сек
Каналы : 6 каналов
Расположение каналов : Front: L C R, Side: L R, LFE
Частота : 48,0 КГц
Частота кадров : 93,750 кадра/сек (512 SPF)
Битовая глубина : 24 бит
Метод сжатия : С потерями
Размер потока : 1,10 Гбайт (12%)
Заголовок : Многоголосый закадровый - (Студия Велес) CP-DIGITAL
Язык : Russian
Default : Да
Forced : Нет
Аудио #2
Идентификатор : 3
Формат : AC-3
Формат/Информация : Audio Coding 3
Параметр Endianness формата : Big
Идентификатор кодека : A_AC3
Продолжительность : 1 ч. 44 м.
Вид битрейта : Постоянный
Битрейт : 192 Кбит/сек
Каналы : 2 канала
Расположение каналов : Front: L R
Частота : 48,0 КГц
Частота кадров : 31,250 кадров/сек (1536 SPF)
Битовая глубина : 16 бит
Метод сжатия : С потерями
Размер потока : 144 Мбайт (2%)
Заголовок : Профессиональный двухголосый - 1+1
Язык : Ukrainian
ServiceKind/String : Complete Main
Default : Нет
Forced : Нет
Аудио #3
Идентификатор : 4
Формат : DTS
Формат/Информация : Digital Theater Systems
Режим : 16
Параметр Endianness формата : Big
Идентификатор кодека : A_DTS
Продолжительность : 1 ч. 44 м.
Вид битрейта : Постоянный
Битрейт : 1509 Кбит/сек
Каналы : 6 каналов
Расположение каналов : Front: L C R, Side: L R, LFE
Частота : 48,0 КГц
Частота кадров : 93,750 кадра/сек (512 SPF)
Битовая глубина : 24 бит
Метод сжатия : С потерями
Размер потока : 1,10 Гбайт (12%)
Язык : English
Default : Нет
Forced : Нет
Текст #1
Идентификатор : 5
Формат : UTF-8
Идентификатор кодека : S_TEXT/UTF8
Идентификатор кодека/Информация : UTF-8 Plain Text
Продолжительность : 1 ч. 36 м.
Битрейт : 123 бит/сек
ElementCount : 1538
Размер потока : 87,4 Кбайт (0%)
Заголовок : Full
Язык : Russian
Default : Нет
Forced : Нет
Текст #2
Идентификатор : 6
Формат : VobSub
Режим смешивания : zlib
Идентификатор кодека : S_VOBSUB
Идентификатор кодека/Информация : Picture based subtitle format used on DVDs
Продолжительность : 1 ч. 36 м.
Битрейт : 7679 бит/сек
ElementCount : 1735
Размер потока : 5,30 Мбайт (0%)
Заголовок : Full
Язык : English
Default : Нет
Forced : Нет
Меню
00:00:00.000 : en:Devoted Control
00:07:35.087 : en:Oppprtunity
00:15:48.364 : en:Ready to Deal
00:24:00.230 : en:Explain This
00:31:03.570 : en:Grass Factory
00:41:08.716 : en:Know How to Look
00:49:05.943 : en:Higher Power
00:58:07.901 : en:Clean Up
01:08:12.296 : en:No Choice
01:19:06.074 : en:Trust Me
01:29:11.345 : en:Unqualified
01:37:18.249 : en:End Credits




   Похожие торренты   Торрент   Размер 
В этой теме нет новых непрочитанных сообщений. Травка / Leaves of Grass (2009) BDRemux 1080p | P

9 | 0

14.73 ГБ

В этой теме нет новых непрочитанных сообщений. Травка / Leaves of Grass (2009) BDRip от HQ-ViDEO

67 | 2

2.18 ГБ

В этой теме нет новых непрочитанных сообщений. Травка / Leaves of Grass (2009) BDRip от HQCLUB

0 | 2

2.18 ГБ

В этой теме нет новых непрочитанных сообщений. Травка / Leaves of Grass (2009) BDRip 720p | P

5 | 1

5.26 ГБ

В этой теме нет новых непрочитанных сообщений. Травка / Leaves of Grass (2009) BDRip от Rulya74

39 | 12

1.87 ГБ

В этой теме нет новых непрочитанных сообщений. Травка / Leaves of Grass (2009) BDRip 720p от leonardo 59 | Лицензия

50 | 5

2.42 ГБ

В этой теме нет новых непрочитанных сообщений. Травка / Leaves of Grass (2009) BDRip 720p от NOLIMITS-TEAM

0 | 2

2.18 ГБ




Вы не можете начинать темы
Вы не можете отвечать на сообщения
Вы не можете редактировать свои сообщения
Вы не можете удалять свои сообщения
Вы не можете добавлять вложения

Перейти:  
Для Мосгорсуда, Роскомнадзора и рекламодателей: mosgorsud-torrent[собачка]yandex.ru
 Вход
ppkBB3cker v.2 © 2008-2014 @ PPK
[ Time : 1.845s | 19 Queries | GZIP : Off ]

cron