img image001 image001 image001 image001 image001 image001 image001 image001 image001 image001 image001 image001 image001 image001 image001

Planets Sun Sun Sun
Статистика раздачи
Автор: Nickolas3434 | Размер: 2.91 ГБ | Добавлен: 04 дек 2017
Раздают: 9    Качают: 1
Скачать торрент
Скачать торрент
Описание торрента

СообщениеДобавлено: 04 дек 2017 

Производство: США / Morgan Creek Productions
Жанр: Комедия, Приключения
Режиссер: Деннис Хоппер
Актеры: Том Беренджер, Эрика Элениак, Уильям МакНамара, Гэри Бьюзи, Фредерик Форрест, Криспин Гловер, Марилу Хеннер, Дин Стокуэлл, Грэнд Л. Буш, Мэттью Глэйв, Битти Шрэм, Сеймур Кэссел, Деннис Хоппер
Описание:
Офицер берегового патруля военно-морских сил Рок Рилли думал, что его уже ничем не удивишь. Его свежеиспеченному напарнику Эдди Дивейну тоже все осточертело, и он подумывает об увольнении из армии.
Но удивляться им все-таки пришлось, они почувствовали себя настоящими юнцами, когда повстречались с лейтенантом ВМС Тони Джонсон, красивой и вздорной особой, которая и была тем заключенным, кого они должны были доставить на базу.
Доставка должна проходить согласно заведенному порядку. Однако Тони намерена во что бы то ни стало вырваться на свободу…

Релиз от: K.E.N (NNM-CLUB)
Продолжительность: 01:41:21
Качество видео: WEB-DLRip-AVC
Перевод: Дублированный, многоголосый закадровый, двухголосый закадровый, авторский одноголосый
Субтитров: Английский
Видео: AVC, 1024x576 (16:9), 23.976 fps, 2 950 Kbps (0.209 bit/pixel)
Аудио #1: AC-3, 2 ch, 192 kbps (Rus) - Dub Варус-видео
Аудио #2: AC-3, 2 ch, 192 kbps (Rus) - DVO Екатеринбург-Арт
Аудио #3: AC-3, 2 ch, 192 kbps (Rus) - MVO
Аудио #4: AC-3, 2 ch, 192 kbps (Rus) - DVO Ren TV (ТНТ, ДТВ)
Аудио #5: AC-3, 6 ch, 384 kbps (Rus) - AVO Михалёв Алексей Михайлович
Аудио #6: AC-3, 2 ch, 192 kbps (Rus) - АVO Пронин Антон
x264 [info]: profile High, level 4.1
x264 [info]: frame I:1229 Avg QP:14.60 size: 83494 PSNR Mean Y:49.16 U:54.41 V:54.37 Avg:50.25 Global:49.88
x264 [info]: frame P:38066 Avg QP:17.00 size: 30497 PSNR Mean Y:47.09 U:53.15 V:52.84 Avg:48.24 Global:47.91
x264 [info]: frame B:106511 Avg QP:19.20 size: 9194 PSNR Mean Y:46.53 U:53.16 V:52.61 Avg:47.69 Global:47.32
Формат : Matroska
Версия формата : Version 2
Размер файла : 2,91 Гбайт
Продолжительность : 1 ч. 41 м.
Общий поток : 4105 Кбит/сек
Дата кодирования : UTC 2016-09-03 12:02:26
Программа кодирования : mkvmerge v5.3.0 ('I could have danced') built on Feb 9 2012 10:38:07
Библиотека кодирования : libebml v1.2.3 + libmatroska v1.3.0
Attachment : Yes
Видео
Идентификатор : 1
Формат : AVC
Формат/Информация : Advanced Video Codec
Профиль формата : [email protected]
Параметр CABAC формата : Да
Параметр ReFrames формата : 10 кадров
Идентификатор кодека : V_MPEG4/ISO/AVC
Продолжительность : 1 ч. 41 м.
Битрейт : 2950 Кбит/сек
Ширина : 1024 пикселя
Высота : 576 пикселей
Соотношение сторон : 16:9
Режим частоты кадров : Постоянный
Частота кадров : 23,976 кадра/сек
Цветовое пространство : YUV
Субдискретизация насыщенности : 4:2:0
Битовая глубина : 8 бит
Тип развёртки : Прогрессивная
Бит/(Пиксели*Кадры) : 0.209
Размер потока : 2,03 Гбайт (70%)
Библиотека кодирования : x264 core 146 r2538 121396c
Настройки программы : cabac=1 / ref=10 / deblock=1:-3:-3 / analyse=0x3:0x133 / me=umh / subme=10 / psy=1 / psy_rd=1.00:0.15 / mixed_ref=1 / me_range=32 / chroma_me=1 / trellis=2 / 8x8dct=1 / cqm=0 / deadzone=21,11 / fast_pskip=0 / chroma_qp_offset=-3 / threads=12 / lookahead_threads=2 / sliced_threads=0 / nr=0 / decimate=0 / interlaced=0 / bluray_compat=0 / constrained_intra=0 / bframes=8 / b_pyramid=2 / b_adapt=2 / b_bias=0 / direct=3 / weightb=1 / open_gop=0 / weightp=2 / keyint=240 / keyint_min=23 / scenecut=40 / intra_refresh=0 / rc_lookahead=40 / rc=2pass / mbtree=0 / bitrate=2950 / ratetol=1.0 / qcomp=0.60 / qpmin=0 / qpmax=69 / qpstep=4 / cplxblur=20.0 / qblur=0.5 / vbv_maxrate=50000 / vbv_bufsize=62500 / nal_hrd=none / filler=0 / ip_ratio=1.40 / pb_ratio=1.30 / aq=1:0.70
Язык : English
Default : Да
Forced : Нет
Аудио #1
Идентификатор : 2
Формат : AC-3
Формат/Информация : Audio Coding 3
Расширение режима : CM (complete main)
Параметр Endianness формата : Big
Идентификатор кодека : A_AC3
Продолжительность : 1 ч. 41 м.
Вид битрейта : Постоянный
Битрейт : 192 Кбит/сек
Каналы : 2 канала
Расположение каналов : Front: L R
Частота : 48,0 КГц
Битовая глубина : 16 бит
Метод сжатия : С потерями
Размер потока : 139 Мбайт (5%)
Заголовок : Dub Варус-видео
Язык : Russian
Default : Нет
Forced : Нет
Аудио #2
Идентификатор : 3
Формат : AC-3
Формат/Информация : Audio Coding 3
Расширение режима : CM (complete main)
Параметр Endianness формата : Big
Идентификатор кодека : A_AC3
Продолжительность : 1 ч. 41 м.
Вид битрейта : Постоянный
Битрейт : 192 Кбит/сек
Каналы : 2 канала
Расположение каналов : Front: L R
Частота : 48,0 КГц
Битовая глубина : 16 бит
Метод сжатия : С потерями
Размер потока : 139 Мбайт (5%)
Заголовок : DVO Екатеринбург-Арт
Язык : Russian
Default : Нет
Forced : Нет
Аудио #3
Идентификатор : 4
Формат : AC-3
Формат/Информация : Audio Coding 3
Расширение режима : CM (complete main)
Параметр Endianness формата : Big
Идентификатор кодека : A_AC3
Продолжительность : 1 ч. 41 м.
Вид битрейта : Постоянный
Битрейт : 192 Кбит/сек
Каналы : 2 канала
Расположение каналов : Front: L R
Частота : 48,0 КГц
Битовая глубина : 16 бит
Метод сжатия : С потерями
Размер потока : 139 Мбайт (5%)
Заголовок : DVO Ren TV (ТНТ, ДТВ)
Язык : Russian
Default : Нет
Forced : Нет
Аудио #4
Идентификатор : 5
Формат : AC-3
Формат/Информация : Audio Coding 3
Расширение режима : CM (complete main)
Параметр Endianness формата : Big
Идентификатор кодека : A_AC3
Продолжительность : 1 ч. 41 м.
Вид битрейта : Постоянный
Битрейт : 384 Кбит/сек
Каналы : 6 каналов
Расположение каналов : Front: L C R, Side: L R, LFE
Частота : 48,0 КГц
Битовая глубина : 16 бит
Метод сжатия : С потерями
Размер потока : 278 Мбайт (9%)
Заголовок : AVO Михалёв Алексей Михайлович [1944—1994]
Язык : Russian
Default : Нет
Forced : Нет
Аудио #5
Идентификатор : 6
Формат : AC-3
Формат/Информация : Audio Coding 3
Расширение режима : CM (complete main)
Параметр Endianness формата : Big
Идентификатор кодека : A_AC3
Продолжительность : 1 ч. 41 м.
Вид битрейта : Постоянный
Битрейт : 192 Кбит/сек
Каналы : 2 канала
Расположение каналов : Front: L R
Частота : 48,0 КГц
Битовая глубина : 16 бит
Метод сжатия : С потерями
Размер потока : 139 Мбайт (5%)
Заголовок : АVO Пронин Антон
Язык : Russian
Default : Нет
Forced : Нет
Текст
Идентификатор : 7
Формат : UTF-8
Идентификатор кодека : S_TEXT/UTF8
Идентификатор кодека/Информация : UTF-8 Plain Text
Язык : English
Default : Нет
Forced : Нет

Скриншоты:



   Похожие торренты   Торрент   Размер 
В этой теме нет новых непрочитанных сообщений. Конвоиры / Chasers (1994) WEB-DLRip от MegaPeer | D, P2, P, A

30 | 26

2.14 ГБ

В этой теме нет новых непрочитанных сообщений. Конвоиры / Chasers (1994) WEB-DLRip от ExKinoRay | D

55 | 5

746.11 МБ

В этой теме нет новых непрочитанных сообщений. Конвоиры / Chasers (1994) WEB-DL 720p | D, P2, A

202 | 71

3.97 ГБ

В этой теме нет новых непрочитанных сообщений. Конвоиры / Chasers (1994) DVD5

2 | 7

4.33 ГБ

В этой теме нет новых непрочитанных сообщений. Конвоиры / Chasers (1994) DVDRip

0 | 1

749.18 МБ

В этой теме нет новых непрочитанных сообщений. Конвоиры / Chasers (1994) DVDRip

21 | 9

2.19 ГБ

В этой теме нет новых непрочитанных сообщений. Конвоиры / Chasers (1994) DVDRip-AVC | D, P2, A

155 | 37

3.21 ГБ




Вы не можете начинать темы
Вы не можете отвечать на сообщения
Вы не можете редактировать свои сообщения
Вы не можете удалять свои сообщения
Вы не можете добавлять вложения

Перейти:  
Для Мосгорсуда, Роскомнадзора и рекламодателей: mosgorsud-torrent[собачка]yandex.ru
 Вход
ppkBB3cker v.2 © 2008-2014 @ PPK
[ Time : 0.133s | 19 Queries | GZIP : Off ]

cron