img image001 image001 image001 image001 image001 image001 image001 image001 image001 image001 image001 image001 image001 image001 image001

Planets Sun Sun Sun
Статистика раздачи
Автор: Nickolas3434 | Размер: 11.78 ГБ | Добавлен: 03 дек 2017
Раздают: 18    Качают: 1
Скачать торрент
Скачать торрент
Описание торрента

СообщениеДобавлено: 03 дек 2017 

Шоугелз / Showgirls

«The side of Vegas you were never mean't to see»

Русское название: Шоугелз
Оригинальное название: Showgirls
Год выпуска: 1995
Жанр: драма, мелодрама
Выпущено: Франция, США
Режиссер: Пол Верховен
В ролях: Элизабет Беркли , Кайл МакЛоклен , Джина Гершон , Гленн Пламмер , Роберт Дави , Алан Рачинс , Джина Равера , Лин Туччи , Грег Трэвис , Аль Руссо , Патрик Бристоу , Уильям Шокли
Перевод: Дублированный, Профессиональный многоголосый, Авторский одноголосый

Сюжет фильма:
Молодая длинноногая танцовщица Номи отчаянно пытается добиться успеха в Лас-Вегасе и проникнуть в блистающий мир ярких огней, блеска и света шоу - сцены. Чтобы удержаться «на плаву», она соглашается на единственно возможную работу - стриптиз, пока ей не удается вытянуть свой счастливый билет - познакомиться с королевой сцены Лас-Вегаса Кристал.

Качество: BDRip 720p
Формат: AVC (библиотека кодирования x.264)
Контейнер (Расширение): MKV
Видео: 1280x532, 9191 Кбит/сек, 23,976 кадр/сек, 0,563 Бит/[Пиксели*Кадры]
Аудио №1: русский / AC3 / 2.0 / 48 kHz / 192 kbps / |Дублированный|
Аудио №2: русский / AC3 / 5.1 / 48 kHz / 640 kbps / |Профессиональный многоголосый, CP Digital|
Аудио №3: русский / AC3 / 5.1 / 48 kHz / 640 kbps / |Профессиональный многоголосый, Black Street Records (ненормативная лексика)|
Аудио №4: русский / AC3 / 2.0 / 48 kHz / 192 kbps / |Профессиональный многоголосый, СТС|
Аудио №5: русский / AC3 / 5.1 / 48 kHz / 640 kbps / |Авторский одноголосый, Живов|
Аудио №6: русский / AC3 / 5.1 / 48 kHz / 448 kbps / |Авторский одноголосый, Гаврилов|
Аудио №7: английский / AC3 / 5.1 / 48 kHz / 640 kbps /
Субтитры: русские (3 вида), английские
Навигация по главам(Чаптеры): есть
Продолжительность: 02:11:22
Автор рипа: Группа:

Format : Matroska
Format version : Version 2
File size : 11.8 GiB
Duration : 2 h 11 min
Overall bit rate : 12.8 Mb/s
Movie name : Showgirls.(1995).BDRip.720p.[denis100]
Encoded date : UTC 2017-12-03 06:56:34
Writing application : mkvmerge v5.8.0 ('No Sleep / Pillow') built on Sep 2 2012 15:37:04
Writing library : libebml v1.2.3 + libmatroska v1.3.0
Video
ID : 1
Format : AVC
Format/Info : Advanced Video Codec
Format profile : [email protected]
Format settings, CABAC : Yes
Format settings, ReFrames : 11 frames
Codec ID : V_MPEG4/ISO/AVC
Duration : 2 h 11 min
Bit rate : 9 191 kb/s
Width : 1 280 pixels
Height : 532 pixels
Display aspect ratio : 2.40:1
Frame rate mode : Constant
Frame rate : 23.976 (24000/1001) FPS
Color space : YUV
Chroma subsampling : 4:2:0
Bit depth : 8 bits
Scan type : Progressive
Bits/(Pixel*Frame) : 0.563
Stream size : 8.43 GiB (72%)
Title : Showgirls.(1995).BDRip.720p.[denis100]
Writing library : x264 core 152 r2851 ba24899
Encoding settings : cabac=1 / ref=11 / deblock=1:-3:-3 / analyse=0x3:0x113 / me=umh / subme=11 / psy=1 / psy_rd=1.00:0.15 / mixed_ref=1 / me_range=32 / chroma_me=1 / trellis=2 / 8x8dct=1 / cqm=0 / deadzone=21,11 / fast_pskip=0 / chroma_qp_offset=-3 / threads=6 / lookahead_threads=1 / sliced_threads=0 / nr=0 / decimate=1 / interlaced=0 / bluray_compat=0 / constrained_intra=0 / bframes=8 / b_pyramid=2 / b_adapt=2 / b_bias=0 / direct=3 / weightb=1 / open_gop=0 / weightp=2 / keyint=240 / keyint_min=23 / scenecut=40 / intra_refresh=0 / rc=crf / mbtree=0 / crf=17.7 / qcomp=0.60 / qpmin=0 / qpmax=69 / qpstep=4 / ip_ratio=1.40 / pb_ratio=1.30 / aq=1:0.75
Language : English
Default : Yes
Forced : No
Audio #1
ID : 2
Format : AC-3
Format/Info : Audio Coding 3
Mode extension : CM (complete main)
Format settings, Endianness : Big
Codec ID : A_AC3
Duration : 2 h 11 min
Bit rate mode : Constant
Bit rate : 192 kb/s
Channel(s) : 2 channels
Channel positions : Front: L R
Sampling rate : 48.0 kHz
Frame rate : 31.250 FPS (1536 spf)
Compression mode : Lossy
Stream size : 180 MiB (1%)
Title : Дубляж
Language : Russian
Default : Yes
Forced : No
Audio #2
ID : 3
Format : AC-3
Format/Info : Audio Coding 3
Mode extension : CM (complete main)
Format settings, Endianness : Big
Codec ID : A_AC3
Duration : 2 h 11 min
Bit rate mode : Constant
Bit rate : 640 kb/s
Channel(s) : 6 channels
Channel positions : Front: L C R, Side: L R, LFE
Sampling rate : 48.0 kHz
Frame rate : 31.250 FPS (1536 spf)
Compression mode : Lossy
Stream size : 601 MiB (5%)
Title : MVO, CP Digital
Language : Russian
Default : No
Forced : No
Audio #3
ID : 4
Format : AC-3
Format/Info : Audio Coding 3
Mode extension : CM (complete main)
Format settings, Endianness : Big
Codec ID : A_AC3
Duration : 2 h 11 min
Bit rate mode : Constant
Bit rate : 640 kb/s
Channel(s) : 6 channels
Channel positions : Front: L C R, Side: L R, LFE
Sampling rate : 48.0 kHz
Frame rate : 31.250 FPS (1536 spf)
Compression mode : Lossy
Stream size : 601 MiB (5%)
Title : MVO, Black Street Records
Language : Russian
Default : No
Forced : No
Audio #4
ID : 5
Format : AC-3
Format/Info : Audio Coding 3
Mode extension : CM (complete main)
Format settings, Endianness : Big
Codec ID : A_AC3
Duration : 2 h 11 min
Bit rate mode : Constant
Bit rate : 192 kb/s
Channel(s) : 2 channels
Channel positions : Front: L R
Sampling rate : 48.0 kHz
Frame rate : 31.250 FPS (1536 spf)
Compression mode : Lossy
Stream size : 180 MiB (1%)
Title : MVO, СТС
Language : Russian
Default : No
Forced : No
Audio #5
ID : 6
Format : AC-3
Format/Info : Audio Coding 3
Mode extension : CM (complete main)
Format settings, Endianness : Big
Codec ID : A_AC3
Duration : 2 h 11 min
Bit rate mode : Constant
Bit rate : 640 kb/s
Channel(s) : 6 channels
Channel positions : Front: L C R, Side: L R, LFE
Sampling rate : 48.0 kHz
Frame rate : 31.250 FPS (1536 spf)
Compression mode : Lossy
Stream size : 601 MiB (5%)
Title : AVO, Живов
Language : Russian
Default : No
Forced : No
Audio #6
ID : 7
Format : AC-3
Format/Info : Audio Coding 3
Mode extension : CM (complete main)
Format settings, Endianness : Big
Codec ID : A_AC3
Duration : 2 h 11 min
Bit rate mode : Constant
Bit rate : 448 kb/s
Channel(s) : 6 channels
Channel positions : Front: L C R, Side: L R, LFE
Sampling rate : 48.0 kHz
Frame rate : 31.250 FPS (1536 spf)
Compression mode : Lossy
Stream size : 421 MiB (3%)
Title : AVO, Гаврилов
Language : Russian
Default : No
Forced : No
Audio #7
ID : 8
Format : AC-3
Format/Info : Audio Coding 3
Mode extension : CM (complete main)
Format settings, Endianness : Big
Codec ID : A_AC3
Duration : 2 h 11 min
Bit rate mode : Constant
Bit rate : 640 kb/s
Channel(s) : 6 channels
Channel positions : Front: L C R, Side: L R, LFE
Sampling rate : 48.0 kHz
Frame rate : 31.250 FPS (1536 spf)
Compression mode : Lossy
Stream size : 601 MiB (5%)
Language : English
Default : No
Forced : No
Text #1
ID : 9
Format : UTF-8
Codec ID : S_TEXT/UTF8
Codec ID/Info : UTF-8 Plain Text
Language : Russian
Default : No
Forced : No
Text #2
ID : 10
Format : UTF-8
Codec ID : S_TEXT/UTF8
Codec ID/Info : UTF-8 Plain Text
Language : Russian
Default : No
Forced : No
Text #3
ID : 11
Format : UTF-8
Codec ID : S_TEXT/UTF8
Codec ID/Info : UTF-8 Plain Text
Language : Russian
Default : No
Forced : No
Text #4
ID : 12
Format : UTF-8
Codec ID : S_TEXT/UTF8
Codec ID/Info : UTF-8 Plain Text
Language : English
Default : No
Forced : No
Menu
00:00:00.000 : :Chapter 01
00:03:20.450 : :Chapter 02
00:08:11.741 : :Chapter 03
00:12:20.656 : :Chapter 04
00:16:04.546 : :Chapter 05
00:19:43.182 : :Chapter 06
00:22:43.487 : :Chapter 07
00:26:14.906 : :Chapter 08
00:34:09.839 : :Chapter 09
00:36:09.584 : :Chapter 10
00:38:00.444 : :Chapter 11
00:43:55.841 : :Chapter 12
00:49:31.510 : :Chapter 13
00:53:04.264 : :Chapter 14
00:56:31.971 : :Chapter 15
00:58:26.002 : :Chapter 16
01:02:43.593 : :Chapter 17
01:04:48.968 : :Chapter 18
01:11:37.835 : :Chapter 19
01:18:16.191 : :Chapter 20
01:23:07.607 : :Chapter 21
01:29:28.279 : :Chapter 22
01:31:26.564 : :Chapter 23
01:37:24.296 : :Chapter 24
01:38:49.006 : :Chapter 25
01:42:37.734 : :Chapter 26
01:45:35.120 : :Chapter 27
01:46:59.788 : :Chapter 28
01:52:38.376 : :Chapter 29
01:55:46.814 : :Chapter 30
01:58:49.455 : :Chapter 31
02:03:39.412 : :Chapter 32
02:11:22.082 : :Chapter 33



   Похожие торренты   Торрент   Размер 
В этой теме нет новых непрочитанных сообщений. Шоугёлз / Showgirls (1995) BDRip 720p

18 | 11

8.99 ГБ

В этой теме нет новых непрочитанных сообщений. Шоугелз / Showgirls (1995) BDRip 720p от FREEISLAND

12 | 4

3.12 ГБ

В этой теме нет новых непрочитанных сообщений. Шоугелз / Showgirls (1995) BDRip | D

61 | 10

748.36 МБ

В этой теме нет новых непрочитанных сообщений. Шоугелз / Showgirls (1995) BDRip | D

309 | 16

1.45 ГБ

В этой теме нет новых непрочитанных сообщений. Шоугелз / Showgirls (1995) BDRip-AVC от MediaClub | D, P, A

28 | 4

5.82 ГБ

В этой теме нет новых непрочитанных сообщений. Шоугелз / Showgirls (1995) BDRip от HQCLUB

72 | 34

2.19 ГБ

В этой теме нет новых непрочитанных сообщений. Шоугёлз / Showgirls (1995) BDRip 1080p от BT-Club

50 | 47

5.3 ГБ




Вы не можете начинать темы
Вы не можете отвечать на сообщения
Вы не можете редактировать свои сообщения
Вы не можете удалять свои сообщения
Вы не можете добавлять вложения

Перейти:  
Для Мосгорсуда, Роскомнадзора и рекламодателей: mosgorsud-torrent[собачка]yandex.ru
 Вход
ppkBB3cker v.2 © 2008-2014 @ PPK
[ Time : 0.052s | 19 Queries | GZIP : Off ]

cron