img image001 image001 image001 image001 image001 image001 image001 image001 image001 image001 image001 image001 image001 image001 image001

Planets Sun Sun Sun
Статистика раздачи
Автор: Nickolas3434 | Размер: 746.11 МБ | Добавлен: 03 дек 2017
Раздают: 55    Качают: 5
Скачать торрент
Скачать торрент
Описание торрента

СообщениеДобавлено: 03 дек 2017 

Информация о фильме
Название: Конвоиры
Оригинальное название: Chasers
Год выхода: 1994
Жанр: комедия, приключения
Режиссер: Деннис Хоппер
В ролях: Том Беренджер, Эрика Элениак, Уильям МакНамара, Гэри Бьюзи, Фредерик Форрест, Криспин Гловер, Марилу Хеннер, Дин Стокуэлл, Грэнд Л. Буш, Мэттью Глэйв, Битти Шрэм, Сеймур Кэссел, Деннис Хоппер
О фильме :
Офицер берегового патруля военно-морских сил Рок Рилли думал, что его уже ничем не удивишь. Его свежеиспеченному напарнику Эдди Дивейну тоже все осточертело, и он подумывает об увольнении из армии. Но удивляться им все-таки пришлось, они почувствовали себя настоящими юнцами, когда повстречались с лейтенантом ВМС Тони Джонсон, красивой и вздорной особой, которая и была тем заключенным, кого они должны были доставить на базу. Доставка должна проходить согласно заведенному порядку. Однако Тони намерена во что бы то ни стало вырваться на свободу…

Страна: США, Morgan Creek Productions
Продолжительность: 01:41:21
Перевод: Профессиональный (полное дублирование)
Файл
Формат: MKV
Качество: WEB-DLRip-AVC
Видео: MPEG-4 AVC, 752x424, ~ 951 Кбит/с
Аудио: AAC-LC, 2 ch, ~ 76 Кбит/с
Общее
Уникальный идентификатор : 212825186495342771166264760659307436016 (0xA01CA3D45C59FC94BEEA25BCED3C97F0)
Полное имя : D:MOVIESChasers.1994.ExKinoRay.mkv
Формат : Matroska
Версия формата : Version 4 / Version 2
Размер файла : 746 Мбайт
Продолжительность : 1 ч. 41 м.
Общий поток : 1029 Кбит/сек
Дата кодирования : UTC 2017-12-03 11:18:15
Программа кодирования : mkvmerge v15.0.0 ('Duel with the Devil') 64-bit
Библиотека кодирования : libebml v1.3.5 + libmatroska v1.4.5
Видео
Идентификатор : 1
Формат : AVC
Формат/Информация : Advanced Video Codec
Профиль формата : [email protected]
Параметр CABAC формата : Да
Параметр RefFrames формата : 10 кадров
Идентификатор кодека : V_MPEG4/ISO/AVC
Продолжительность : 1 ч. 41 м.
Битрейт : 951 Кбит/сек
Ширина : 752 пикселя
Высота : 424 пикселя
Соотношение сторон : 16:9
Режим частоты кадров : Постоянный
Частота кадров : 23,976 (24000/1001) кадра/сек
Цветовое пространство : YUV
Субдискретизация насыщенности : 4:2:0
Битовая глубина : 8 бит
Тип развёртки : Прогрессивная
Бит/(Пиксели*Кадры) : 0.124
Размер потока : 689 Мбайт (92%)
Библиотека кодирования : x264 core 152 r2851kMod ba24899
Настройки программы : cabac=1 / ref=10 / deblock=1:-3:-3 / analyse=0x3:0x133 / me=umh / subme=11 / psy=1 / fade_compensate=0.00 / psy_rd=1.00:0.09 / mixed_ref=1 / me_range=32 / chroma_me=1 / trellis=2 / 8x8dct=1 / cqm=0 / deadzone=21,11 / fast_pskip=0 / chroma_qp_offset=-3 / threads=6 / lookahead_threads=1 / sliced_threads=0 / nr=0 / decimate=0 / interlaced=0 / bluray_compat=0 / constrained_intra=0 / bframes=10 / b_pyramid=2 / b_adapt=2 / b_bias=0 / direct=3 / weightb=1 / open_gop=0 / weightp=2 / keyint=240 / keyint_min=23 / scenecut=40 / intra_refresh=0 / rc_lookahead=40 / rc=2pass / mbtree=1 / bitrate=951 / ratetol=1.0 / qcomp=0.60 / qpmin=0 / qpmax=69 / qpstep=4 / cplxblur=20.0 / qblur=0.5 / vbv_maxrate=50000 / vbv_bufsize=62500 / nal_hrd=none / filler=0 / ip_ratio=1.40 / aq=3:1.00
Default : Да
Forced : Нет
Аудио
Идентификатор : 2
Формат : AAC
Формат/Информация : Advanced Audio Codec
Профиль формата : LC
Идентификатор кодека : A_AAC
Продолжительность : 1 ч. 41 м.
Битрейт : 76,0 Кбит/сек
Каналы : 2 канала
Расположение каналов : Front: L R
Частота : 48,0 КГц
Частота кадров : 46,875 кадров/сек (1024 SPF)
Метод сжатия : С потерями
Задержка видео : 9 мс.
Размер потока : 55,1 Мбайт (7%)
Язык : Russian
Default : Да
Forced : Нет
Меню
00:00:00.000 : en:Day Before Discharge
00:03:06.000 : en:Update on Eddie's Baby
00:04:13.000 : en:Last, Final Scam
00:07:05.000 : en:Chaser Duty/Secret Stash
00:11:08.000 : en:Rock's New Partner
00:14:14.000 : en:Not Good with People...
00:17:12.000 : en:Jarheads Meet Fishboys
00:21:40.000 : en:The Prisoner
00:26:15.000 : en:No Rest at the Rest Stop
00:32:17.000 : en:Sabotage
00:37:43.000 : en:A Short Cut
00:41:29.000 : en:Irony on Foot
00:45:02.000 : en:Unexpected Depth
00:47:03.000 : en:Shirts - and More...
00:50:14.000 : en:Duane Lends a Tow
00:53:14.000 : en:Toni's Story
00:58:18.000 : en:No More Car, No More...
01:02:48.000 : en:Unlocked
01:07:22.000 : en:Toni Goes for a Ride
01:09:58.000 : en:They call me Doggie
01:11:04.000 : en:Doggie's Day
01:13:29.000 : en:Collision Course
01:16:33.000 : en:Fugitive Apprehended
01:19:08.000 : en:Miniature Golf Mayhem
01:21:11.000 : en:Belonging Where Toni...
01:24:33.000 : en:Letting Go
01:28:45.000 : en:Those Guys Don't...
01:30:17.000 : en:Gettin' the Girl Out
01:35:50.000 : en:Contented Couples
01:37:37.000 : en:End Credits


Релиз от:



   Похожие торренты   Торрент   Размер 
В этой теме нет новых непрочитанных сообщений. Конвоиры / Chasers (1994) WEB-DLRip-AVC от k.e.n | D, P2, P, A

9 | 1

2.91 ГБ

В этой теме нет новых непрочитанных сообщений. Конвоиры / Chasers (1994) WEB-DLRip от MegaPeer | D, P2, P, A

30 | 26

2.14 ГБ

В этой теме нет новых непрочитанных сообщений. Конвоиры / Chasers (1994) DVDRip

21 | 9

2.19 ГБ

В этой теме нет новых непрочитанных сообщений. Конвоиры / Chasers (1994) DVDRip

0 | 1

749.18 МБ

В этой теме нет новых непрочитанных сообщений. Конвоиры / Chasers (1994) DVD5

2 | 7

4.33 ГБ

В этой теме нет новых непрочитанных сообщений. Конвоиры / Chasers (1994) WEB-DL 720p | D, P2, A

202 | 71

3.97 ГБ

В этой теме нет новых непрочитанных сообщений. Конвоиры / Chasers (1994) DVDRip-AVC | D, P2, A

155 | 37

3.21 ГБ




Вы не можете начинать темы
Вы не можете отвечать на сообщения
Вы не можете редактировать свои сообщения
Вы не можете удалять свои сообщения
Вы не можете добавлять вложения

Перейти:  
Для Мосгорсуда, Роскомнадзора и рекламодателей: mosgorsud-torrent[собачка]yandex.ru
 Вход
ppkBB3cker v.2 © 2008-2014 @ PPK
[ Time : 1.171s | 19 Queries | GZIP : Off ]

cron